<?xml version="1.0" standalone="no"?>
<!DOCTYPE svg PUBLIC "-//W3C//DTD SVG 1.1//EN" "http://www.w3.org/Graphics/SVG/1.1/DTD/svg11.dtd" >
<svg xmlns="http://www.w3.org/2000/svg" xmlns:xlink="http://www.w3.org/1999/xlink" version="1.1">
<metadata>
Created by FontForge 20170731 at Wed Jan 20 19:18:49 1993
 By Aleksey,,,
Copyright 1990-1993 Bitstream Inc.  All rights reserved.
</metadata>
<defs>
<font id="Dutch801BT-RomanHeadline" horiz-adv-x="1024" >
  <font-face 
    font-family="Dutch801 RmHd BT"
    font-weight="400"
    font-stretch="normal"
    units-per-em="2048"
    panose-1="2 2 6 3 6 5 5 2 3 4"
    ascent="1638"
    descent="-410"
    x-height="1024"
    cap-height="1518"
    bbox="-342 -485 2103 1972"
    underline-thickness="104"
    underline-position="-398"
    unicode-range="U+0020-F002"
  />
<missing-glyph horiz-adv-x="1229" 
d="M102 -362v1806h1024v-1806h-1024zM217 -248h795v1577h-795v-1577z" />
    <glyph glyph-name=".notdef" horiz-adv-x="1229" 
d="M102 -362v1806h1024v-1806h-1024zM217 -248h795v1577h-795v-1577z" />
    <glyph glyph-name=".null" horiz-adv-x="0" 
 />
    <glyph glyph-name="nonmarkingreturn" horiz-adv-x="516" 
 />
    <glyph glyph-name="space" unicode=" " horiz-adv-x="516" 
 />
    <glyph glyph-name="exclam" unicode="!" horiz-adv-x="758" 
d="M391 465h-24q-8 237 -44 540.5t-36 374.5q0 86 22 126t70 40q47 0 69.5 -40t22.5 -124q0 -71 -36.5 -375t-43.5 -542zM483 80q0 -47 -30 -78t-76 -31q-44 0 -73.5 31t-29.5 78q0 45 29.5 75.5t73.5 30.5q46 0 76 -30t30 -76z" />
    <glyph glyph-name="quotedbl" unicode="&#x22;" horiz-adv-x="678" 
d="M518 864h-31l-65 457q0 2 -1 6q-3 22 -3 33q0 49 22.5 75.5t63.5 26.5q40 0 62 -26t22 -74q0 -14 -0.5 -23t-1.5 -18zM190 864h-32l-64 457q-2 17 -3 26t-1 15q0 48 22 74t62 26q41 0 63.5 -26t22.5 -74q0 -9 -3 -34q-1 -5 -1 -7z" />
    <glyph glyph-name="numbersign" unicode="#" horiz-adv-x="1575" 
d="M700 868l-100 -286h289l102 286h-291zM778 1456h133l-168 -471h287l168 471h131l-166 -471h307l-40 -117h-310l-100 -286h332l-43 -115h-330l-166 -469h-133l166 469h-287l-166 -469h-131l166 469h-324l43 115h322l100 286h-348l43 117h348z" />
    <glyph glyph-name="dollar" unicode="$" horiz-adv-x="1034" 
d="M541 1583v-82q100 -12 178 -39t135 -69v-273h-23q-29 158 -99 235.5t-191 88.5v-557q221 -127 312 -242t91 -262q0 -166 -104 -266t-299 -123v-230h-80l-1 230q-91 4 -184.5 36t-191.5 93v258h25q58 -159 147.5 -242.5t204.5 -84.5v663q-185 106 -271 214t-86 234
q0 147 94 235.5t263 100.5v82h80zM541 668v-617q116 8 176.5 77.5t60.5 195.5q0 106 -59 191t-178 153zM461 936v507q-99 -8 -154 -66.5t-55 -155.5q0 -83 49 -150.5t160 -134.5z" />
    <glyph glyph-name="percent" unicode="%" horiz-adv-x="1569" 
d="M1044 -27q-103 0 -161 62.5t-58 173.5q0 86 30 176.5t85 169.5t129 123.5t152 44.5q95 0 154 -62.5t59 -164.5q0 -81 -26.5 -170t-74.5 -168q-53 -91 -127 -138t-162 -47zM1389 494q0 68 -32.5 107.5t-88.5 39.5q-48 0 -98 -37.5t-91 -103.5q-49 -81 -77.5 -167
t-28.5 -153q0 -71 32 -108t93 -37q47 0 91 29t87 90q49 66 81 163t32 177zM563 1356h-8q-47 0 -95.5 -37t-90.5 -105q-50 -79 -78.5 -164.5t-28.5 -152.5q0 -72 32.5 -109.5t92.5 -37.5q47 0 91 29t87 89q49 67 81 165t32 177q0 14 -2.5 30.5t-7.5 32.5q-35 18 -61.5 38.5
t-43.5 44.5zM1200 1489h84l-940 -1579h-84l838 1405q-50 -40 -110.5 -60t-133.5 -20q-30 0 -62 5.5t-73 18.5q2 -19 3 -30t1 -21q0 -57 -16.5 -124.5t-49.5 -141.5q-55 -124 -137.5 -189t-185.5 -65q-104 0 -161.5 62t-57.5 174q0 86 30 177.5t84 170.5q55 78 129 122
t152 44q59 0 105 -27t83 -84q23 -22 68 -34.5t104 -12.5q100 0 186.5 54.5t143.5 154.5z" />
    <glyph glyph-name="ampersand" unicode="&#x26;" horiz-adv-x="1581" 
d="M522 780q-130 -77 -194 -164.5t-64 -189.5q0 -136 75.5 -224.5t190.5 -88.5q73 0 148 37t141 106q-89 128 -163 258.5t-134 265.5zM694 887q53 -121 118.5 -239t143.5 -232q80 109 125 215.5t45 183.5q0 59 -29.5 86t-94.5 29l-1 26h424v-26h-12q-52 0 -89.5 -32.5
t-92.5 -137.5q-14 -26 -43 -87q-96 -203 -189 -325q82 -107 166.5 -167t153.5 -60q56 0 97 29.5t75 95.5l18 -4q-25 -125 -104.5 -198t-187.5 -73q-89 0 -176 56.5t-177 171.5q-122 -117 -230.5 -172.5t-215.5 -55.5q-152 0 -245 95.5t-93 250.5q0 159 104.5 289.5
t315.5 235.5q-43 97 -64.5 183t-21.5 157q0 156 96.5 261t239.5 105q114 0 189 -77t75 -195q0 -121 -79 -217t-241 -172zM674 944q112 62 168.5 142.5t56.5 179.5q0 97 -42.5 156t-111.5 59q-70 0 -115.5 -59t-45.5 -152q0 -61 23.5 -146t66.5 -180z" />
    <glyph glyph-name="quotesingle" unicode="'" horiz-adv-x="348" 
d="M190 864h-32l-66 457q-1 8 -1.5 16t-0.5 23q0 50 21.5 76t62.5 26t63.5 -26t22.5 -74q0 -9 -3 -34q-1 -5 -1 -7z" />
    <glyph glyph-name="parenleft" unicode="(" horiz-adv-x="770" 
d="M717 -264q-249 122 -384.5 358t-135.5 547t135.5 547t384.5 358v-37q-182 -114 -266 -322t-84 -546t84 -546t266 -322v-37z" />
    <glyph glyph-name="parenright" unicode=")" horiz-adv-x="770" 
d="M51 1546q248 -122 384 -358.5t136 -546.5q0 -311 -135.5 -547t-384.5 -358v37q181 114 265.5 323t84.5 545t-84.5 545t-265.5 323v37z" />
    <glyph glyph-name="asterisk" unicode="*" horiz-adv-x="770" 
d="M354 1178q-80 54 -199 73q-18 3 -25 4q-33 7 -53 29t-20 51t19 46.5t49 17.5q40 0 106.5 -76.5t133.5 -116.5v21q0 78 -27 156.5t-27 89.5q0 35 19.5 54t54.5 19q32 0 51 -20t19 -53q0 -19 -29 -94t-29 -140q0 -5 1 -15.5t1 -17.5q73 38 139.5 115.5t104.5 77.5
q27 0 48.5 -22t21.5 -50q0 -34 -28.5 -54t-98.5 -32h-4q-84 -12 -166 -63q44 -29 87 -45.5t93 -22.5q60 -8 88.5 -27t28.5 -53q0 -29 -20.5 -50.5t-49.5 -21.5q-40 0 -108 81t-134 112v-27q0 -79 27 -156.5t27 -84.5q0 -34 -19 -53t-53 -19q-33 0 -51.5 18.5t-18.5 53.5
q0 17 27 92.5t27 140.5q0 14 -0.5 21t-1.5 13q-70 -37 -136.5 -114.5t-103.5 -77.5q-29 0 -48.5 21t-19.5 51q0 27 20.5 49.5t51.5 28.5q6 1 21 3q109 12 204 67z" />
    <glyph glyph-name="plus" unicode="+" horiz-adv-x="1706" 
d="M795 1221h118v-551h539v-117h-539v-553h-118v553h-541v117h541v551z" />
    <glyph glyph-name="comma" unicode="," horiz-adv-x="516" 
d="M139 -367v35q90 44 144.5 120.5t54.5 156.5q0 23 -9.5 37t-25.5 14q-7 0 -33.5 -7t-46.5 -7q-44 0 -72 29.5t-28 76.5q0 50 30.5 79.5t82.5 29.5q73 0 115 -58t42 -159q0 -117 -71 -214.5t-183 -132.5z" />
    <glyph glyph-name="hyphen" unicode="-" horiz-adv-x="725" 
d="M113 590h499v-133h-499v133z" />
    <glyph glyph-name="period" unicode="." horiz-adv-x="516" 
d="M367 88q0 -49 -30.5 -81t-78.5 -32q-47 0 -76.5 31.5t-29.5 81.5t29.5 81.5t76.5 31.5q48 0 78.5 -32t30.5 -81z" />
    <glyph glyph-name="slash" unicode="/" horiz-adv-x="664" 
d="M94 -190h-86l563 1708h82z" />
    <glyph glyph-name="zero" unicode="0" horiz-adv-x="1034" 
d="M516 20q143 0 203.5 159t60.5 552q0 395 -61 557t-203 162q-141 0 -201.5 -160.5t-60.5 -558.5q0 -395 60 -553t202 -158zM516 -35q-210 0 -332.5 205t-122.5 563t123.5 566t331.5 208q209 0 333 -208t124 -566q0 -356 -123.5 -562t-333.5 -206z" />
    <glyph glyph-name="one" unicode="1" horiz-adv-x="1034" 
d="M272 0l1 29q106 2 144 38.5t38 135.5v975q0 88 -18.5 121.5t-63.5 33.5q-13 0 -39.5 -7.5t-73.5 -25.5v27q106 50 193.5 94.5t162.5 85.5v-1290q0 -113 36 -147t147 -42v-28h-527z" />
    <glyph glyph-name="two" unicode="2" horiz-adv-x="1034" 
d="M231 135h334q172 0 243 28.5t103 98.5h17l-84 -262h-793q74 94 223 259t211 247q113 147 163 270t50 248q0 155 -78.5 252.5t-201.5 97.5q-101 0 -178 -64t-113 -177h-31q36 174 139 274t246 100q163 0 267 -114t104 -295q0 -131 -50 -250t-192 -295q-37 -47 -139 -160
t-240 -258z" />
    <glyph glyph-name="three" unicode="3" horiz-adv-x="1034" 
d="M596 889q135 -54 202.5 -152.5t67.5 -238.5q0 -127 -51.5 -228.5t-155.5 -181.5q-79 -60 -165.5 -91.5t-171.5 -31.5q-97 0 -157.5 42.5t-60.5 107.5q0 31 20.5 49t53.5 18q28 0 120.5 -59.5t162.5 -59.5q112 0 185 92t73 236q0 164 -95 263.5t-251 99.5
q-15 0 -22.5 -0.5t-14.5 -1.5v28q135 31 216 120t81 206q0 122 -62.5 195t-164.5 73q-86 0 -146 -42t-100 -130h-21q32 149 117 227t213 78q135 0 224 -85t89 -214q0 -100 -42.5 -173.5t-143.5 -145.5z" />
    <glyph glyph-name="four" unicode="4" horiz-adv-x="1034" 
d="M791 541h192v-131h-192v-410h-162v410h-563v145l626 952h99v-966zM133 541h496v757z" />
    <glyph glyph-name="five" unicode="5" horiz-adv-x="1034" 
d="M428 1479h485l-61 -146h-422l-108 -252q272 -65 412 -208.5t140 -356.5q0 -95 -26.5 -178t-79.5 -152q-82 -105 -192.5 -163t-229.5 -58q-101 0 -166 42.5t-65 103.5q0 29 18 46t49 17q32 0 122.5 -55.5t160.5 -55.5q125 0 209 103t84 258q0 201 -154.5 337.5
t-415.5 162.5z" />
    <glyph glyph-name="six" unicode="6" horiz-adv-x="1034" 
d="M328 842q56 40 116.5 60t126.5 20q168 0 267.5 -122.5t99.5 -328.5q0 -224 -115.5 -365t-296.5 -141q-185 0 -298 166.5t-113 443.5q0 248 91.5 442.5t276.5 340.5q96 75 208.5 112t242.5 37v-32q-231 -24 -395 -195t-211 -438zM283 522q0 -223 72 -358t190 -135
q105 0 165 97.5t60 270.5q0 207 -71.5 324t-196.5 117q-112 0 -165.5 -77.5t-53.5 -238.5z" />
    <glyph glyph-name="seven" unicode="7" horiz-adv-x="1034" 
d="M522 0h-112l378 1335h-305q-158 0 -226.5 -42.5t-109.5 -153.5h-30l112 340h707z" />
    <glyph glyph-name="eight" unicode="8" horiz-adv-x="1034" 
d="M469 707q-99 -70 -147 -161t-48 -210q0 -138 69.5 -223.5t180.5 -85.5q109 0 177.5 67t68.5 170q0 86 -76.5 198.5t-224.5 244.5zM561 856q93 68 137.5 152t44.5 190q0 113 -64 184.5t-165 71.5q-90 0 -154.5 -68t-64.5 -163q0 -87 63.5 -174.5t202.5 -192.5zM420 750
q-148 125 -204 218.5t-56 205.5q0 150 96.5 241.5t257.5 91.5q153 0 253.5 -89.5t100.5 -223.5q0 -110 -63 -201t-195 -172q152 -120 225.5 -237t73.5 -238q0 -168 -113 -274.5t-292 -106.5q-163 0 -266 101.5t-103 259.5q0 106 61 199t224 225z" />
    <glyph glyph-name="nine" unicode="9" horiz-adv-x="1034" 
d="M717 641q-59 -41 -119.5 -61.5t-126.5 -20.5q-166 0 -265.5 123t-99.5 330q0 222 114 358.5t296 136.5q187 0 300.5 -163.5t113.5 -438.5q0 -246 -92 -440t-279 -340q-100 -78 -212 -118t-236 -42v33q230 30 394.5 204t211.5 439zM760 958q0 222 -71.5 354t-186.5 132
q-109 0 -168.5 -94t-59.5 -267q0 -207 71 -323.5t196 -116.5q112 0 165.5 77.5t53.5 237.5z" />
    <glyph glyph-name="colon" unicode=":" horiz-adv-x="573" 
d="M395 88q0 -49 -30.5 -81t-77.5 -32q-48 0 -78.5 32t-30.5 81q0 50 31 82.5t78 32.5t77.5 -32.5t30.5 -82.5zM395 934q0 -49 -30.5 -81t-77.5 -32q-48 0 -78.5 31.5t-30.5 81.5t31 82.5t78 32.5t77.5 -32.5t30.5 -82.5z" />
    <glyph glyph-name="semicolon" unicode=";" horiz-adv-x="573" 
d="M395 934q0 -49 -30.5 -81t-77.5 -32q-48 0 -77.5 31t-29.5 82q0 50 30 82.5t77 32.5t77.5 -32.5t30.5 -82.5zM178 -367v35q90 44 144.5 120.5t54.5 156.5q0 23 -9.5 37t-25.5 14q-7 0 -33.5 -7t-46.5 -7q-44 0 -72 29.5t-28 76.5q0 50 29.5 79.5t80.5 29.5
q74 0 117 -58.5t43 -158.5q0 -117 -71 -214.5t-183 -132.5z" />
    <glyph glyph-name="less" unicode="&#x3c;" horiz-adv-x="1706" 
d="M1442 1145v-127l-1000 -408l1000 -405v-129l-1178 483v103z" />
    <glyph glyph-name="equal" unicode="=" horiz-adv-x="1706" 
d="M254 477h1198v-117h-1198v117zM254 860h1198v-117h-1198v117z" />
    <glyph glyph-name="greater" unicode="&#x3e;" horiz-adv-x="1706" 
d="M264 1145l1178 -483v-103l-1178 -483v129l1000 405l-1000 408v127z" />
    <glyph glyph-name="question" unicode="?" horiz-adv-x="958" 
d="M561 80q0 -47 -30 -78t-76 -31q-44 0 -73.5 31t-29.5 78q0 45 29.5 75.5t73.5 30.5q46 0 76 -30t30 -76zM444 420h-20q2 91 16 165t41 140q12 27 39 82q105 214 105 364q0 160 -56 245t-159 85q-71 0 -124 -46t-53 -107q0 -30 32 -89t32 -94q0 -34 -15.5 -51.5
t-45.5 -17.5q-51 0 -82 41.5t-31 109.5q0 126 97 212.5t241 86.5q154 0 246 -93.5t92 -250.5q0 -73 -25 -148t-72 -145q-36 -53 -88.5 -117t-62.5 -79q-49 -77 -73 -144.5t-34 -148.5z" />
    <glyph glyph-name="at" unicode="@" horiz-adv-x="2019" 
d="M1190 336q-62 -106 -139 -158.5t-170 -52.5q-125 0 -201 92t-76 244q0 108 49 216t138 193q65 64 144 100t155 36q87 0 143 -49.5t78 -145.5l53 180h143l-170 -610q0 -2 -1 -5q-17 -59 -17 -104q0 -47 25.5 -74.5t68.5 -27.5q34 0 79 17.5t85 48.5q122 90 187 231t65 315
q0 140 -50 252t-153 203q-90 79 -216 122.5t-267 43.5q-187 0 -341.5 -58.5t-275.5 -175.5q-130 -126 -197 -293.5t-67 -369.5q0 -175 57 -304.5t181 -234.5q114 -97 261 -146.5t320 -49.5q163 0 317.5 52t295.5 154l30 -36q-148 -110 -313 -166t-342 -56q-187 0 -342 46.5
t-274 138.5q-151 113 -229.5 274.5t-78.5 358.5q0 204 86 381t250 313q131 110 291 165.5t344 55.5q347 0 553.5 -187t206.5 -499q0 -157 -58 -297t-163 -236q-57 -52 -123.5 -80t-134.5 -28q-97 0 -149 52.5t-58 158.5zM1098 965q-54 0 -99 -31t-92 -100
q-72 -108 -114.5 -234t-42.5 -225q0 -93 40.5 -147t108.5 -54q66 0 126 44.5t116 133.5q57 94 91 202.5t34 197.5q0 93 -47.5 153t-120.5 60z" />
    <glyph glyph-name="A" unicode="A" horiz-adv-x="1366" 
d="M336 528l-125 -301q-18 -45 -25.5 -71t-7.5 -43q0 -43 37.5 -63t118.5 -22v-28h-395v29q58 5 94.5 39.5t87.5 154.5l555 1323h22l498 -1307q1 -2 4 -10q79 -200 197 -200h4v-29h-545v29q75 0 109 24.5t34 77.5q0 23 -7.5 54t-22.5 73l-101 270h-532zM365 596h479
l-223 600z" />
    <glyph glyph-name="B" unicode="B" horiz-adv-x="1298" 
d="M473 1518q358 0 523 -99.5t165 -312.5q0 -121 -62 -199.5t-194 -124.5q165 -51 242.5 -141.5t77.5 -232.5q0 -133 -64 -224t-190 -137q-67 -25 -155 -36t-275 -11h-84h-412v28q125 2 167 40.5t42 150.5v1079q0 111 -41.5 149t-167.5 42v29h428zM471 745v-679h59
q246 0 354.5 79.5t108.5 257.5q0 172 -101.5 260.5t-299.5 88.5q-22 0 -51.5 -1.5t-69.5 -5.5zM471 1452v-628q19 -4 37.5 -5.5t48.5 -1.5q202 0 292.5 73t90.5 234q0 165 -105 246.5t-317 81.5h-47z" />
    <glyph glyph-name="C" unicode="C" horiz-adv-x="1489" 
d="M1299 1546h26l41 -473h-20q-57 195 -179.5 298.5t-296.5 103.5q-254 0 -396 -182t-142 -509q0 -344 143 -532.5t402 -188.5q145 0 271 72.5t222 210.5l35 -22q-97 -172 -245.5 -262.5t-336.5 -90.5q-156 0 -290 56.5t-234 165.5q-102 109 -155.5 249t-53.5 297
q0 188 60 339.5t180 267.5q107 99 236 149.5t274 50.5q125 0 249 -48t136 -48q36 0 54 23.5t20 72.5z" />
    <glyph glyph-name="D" unicode="D" horiz-adv-x="1597" 
d="M467 1421v-1326q48 -10 92.5 -14.5t87.5 -4.5q292 0 455.5 180t163.5 502t-164 503t-455 181q-38 0 -81.5 -5t-98.5 -16zM674 1518q394 0 613.5 -196.5t219.5 -547.5q0 -195 -72.5 -350t-215.5 -266q-107 -84 -245 -121t-360 -37h-573v28q125 2 167 40.5t42 150.5v1079
q0 111 -41.5 149t-167.5 42v29h633z" />
    <glyph glyph-name="E" unicode="E" horiz-adv-x="1339" 
d="M1167 1518l15 -328h-23q-25 154 -83 207t-251 53h-352v-606h270q184 0 237 46t57 181h30v-524h-30q-6 136 -55.5 181.5t-238.5 45.5h-270v-571q0 -84 22 -104.5t109 -20.5h193q158 0 231.5 20.5t120.5 69.5q35 37 67.5 91t63.5 126h25l-115 -385h-1145v28q125 2 167 40.5
t42 150.5v1079q0 111 -41.5 149t-167.5 42v29h1122z" />
    <glyph glyph-name="F" unicode="F" horiz-adv-x="1204" 
d="M1167 1518l15 -328h-23q-25 154 -83 207t-251 53h-352v-612h213q184 0 237 46.5t56 180.5h31v-524h-31q-5 135 -55 181t-238 46h-213v-549q0 -115 44 -152.5t181 -37.5v-29h-653v28q125 2 167 40.5t42 150.5v1079q0 111 -41.5 149t-167.5 42v29h1122z" />
    <glyph glyph-name="G" unicode="G" horiz-adv-x="1587" 
d="M1192 119v536q0 78 -33.5 110t-114.5 32h-18v28h522v-28q-82 -5 -113.5 -35.5t-31.5 -106.5v-520q-119 -82 -254.5 -124t-282.5 -42q-121 0 -226 25.5t-185 73.5q-173 103 -269 280t-96 391q0 188 60 339.5t180 267.5q107 99 239 149.5t285 50.5q129 0 254.5 -48
t136.5 -48q37 0 54.5 23t19.5 73h27l40 -473h-22q-64 201 -188 301.5t-308 100.5q-257 0 -396.5 -179.5t-139.5 -513.5q0 -349 149.5 -545t413.5 -196q83 0 158.5 20t138.5 58z" />
    <glyph glyph-name="H" unicode="H" horiz-adv-x="1636" 
d="M471 219q0 -110 42 -148.5t167 -42.5v-28h-635v28q125 2 167 40.5t42 150.5v1079q0 111 -41.5 149t-167.5 42v29h635v-29q-127 -2 -168 -39.5t-41 -151.5v-475h692v475q0 113 -41.5 151t-166.5 40l-1 29h637v-29q-124 -3 -166.5 -41.5t-42.5 -149.5v-1079q0 -113 42 -151
t167 -40v-28h-637l1 29q124 3 166 41.5t42 148.5v524h-692v-524z" />
    <glyph glyph-name="I" unicode="I" horiz-adv-x="725" 
d="M254 1298q0 113 -41.5 151t-167.5 40v29h635v-29q-126 -4 -167.5 -42t-41.5 -149v-1079q0 -113 41 -150.5t168 -40.5v-28h-635v28q125 4 167 42.5t42 148.5v1079z" />
    <glyph glyph-name="J" unicode="J" horiz-adv-x="883" 
d="M412 1298q0 113 -41.5 151t-167.5 40v29h635l-1 -29q-124 -3 -166 -41.5t-42 -149.5v-886q0 -215 -95 -327t-278 -112q-112 0 -183 51.5t-71 129.5q0 42 26 68t68 26q40 0 64.5 -19.5t40.5 -64.5l6 -18q35 -105 96 -105q56 0 82.5 32t26.5 99v1126z" />
    <glyph glyph-name="K" unicode="K" horiz-adv-x="1446" 
d="M254 1298q0 113 -41.5 151t-167.5 40v29h635v-29q-126 -4 -167.5 -42t-41.5 -149v-507q281 262 420 421.5t139 219.5q0 28 -28.5 42.5t-86.5 14.5h-12v29h471v-29q-3 0 -10 1t-10 1q-116 0 -393 -311q-128 -144 -207 -228l-97 -102l611 -653q0 -1 2 -2q144 -152 272 -166
v-29h-629v29q64 0 96.5 17.5t32.5 51.5q0 22 -23 59.5t-63 78.5l-485 514v-531q0 -113 41 -150.5t168 -40.5v-28h-635v28q125 4 167 42.5t42 148.5v1079z" />
    <glyph glyph-name="L" unicode="L" horiz-adv-x="1290" 
d="M254 1298q0 113 -41.5 151t-167.5 40v29h635v-29q-126 -4 -167.5 -42t-41.5 -149v-1095q0 -83 22.5 -104t110.5 -21h154q152 0 227.5 21t124.5 71q41 41 74.5 98t60.5 133h29l-123 -401h-1106v28q125 2 167 40.5t42 150.5v1079z" />
    <glyph glyph-name="M" unicode="M" horiz-adv-x="1964" 
d="M344 1290v-1087q0 -107 37.5 -137.5t167.5 -36.5v-29h-500v29q130 6 167.5 36.5t37.5 137.5v1091q0 107 -44.5 151t-154.5 44h-8v29h420l524 -1162l508 1162h408v-29q-117 -6 -156 -44.5t-39 -146.5v-1079q0 -110 39.5 -148.5t154.5 -41.5l1 -29h-613l1 29
q118 5 158 43.5t40 146.5v1069l-561 -1270h-23z" />
    <glyph glyph-name="N" unicode="N" horiz-adv-x="1565" 
d="M344 1237v-1034q0 -107 37.5 -137.5t167.5 -36.5v-29h-500v29q130 6 167.5 36.5t37.5 137.5v1165q-25 65 -69.5 94t-118.5 29q-7 0 -18 -1t-17 -1v29h377l817 -1076v871q0 106 -39 138t-168 38v29h502v-29q-130 -6 -168.5 -38t-38.5 -138v-1325h-19z" />
    <glyph glyph-name="O" unicode="O" horiz-adv-x="1602" 
d="M801 43q219 0 345 190.5t126 526.5q0 335 -125.5 525t-345.5 190t-344.5 -190t-124.5 -525q0 -337 125 -527t344 -190zM801 -29q-319 0 -515 216.5t-196 572.5t195 571t516 215q320 0 515 -215t195 -571t-195.5 -572.5t-514.5 -216.5z" />
    <glyph glyph-name="P" unicode="P" horiz-adv-x="1247" 
d="M254 1298q0 113 -41.5 151t-167.5 40v29h453q216 0 314 -15.5t171 -50.5q95 -46 151 -141t56 -211q0 -182 -125.5 -294t-331.5 -112q-70 0 -135.5 15t-126.5 45v-535q0 -113 41 -150.5t168 -40.5v-28h-635v28q125 4 167 42.5t42 148.5v1079zM471 827q41 -31 88 -47
t100 -16q141 0 221.5 88.5t80.5 245.5q0 161 -93 259.5t-243 98.5q-52 0 -90 -4t-64 -12v-613z" />
    <glyph glyph-name="Q" unicode="Q" horiz-adv-x="1602" 
d="M965 14q50 -114 181.5 -179t328.5 -73l-1 -28q-41 -6 -84 -8t-98 -2q-195 0 -368 76.5t-299 217.5q-268 88 -401.5 277t-133.5 481q0 348 195.5 559t515.5 211t515 -210.5t195 -559.5q0 -296 -138 -489t-408 -273zM801 76q220 0 345.5 186t125.5 514t-126 514.5
t-345 186.5t-344 -186t-125 -515t124.5 -514.5t344.5 -185.5z" />
    <glyph glyph-name="R" unicode="R" horiz-adv-x="1350" 
d="M594 723h-123v-504q0 -113 41 -150.5t168 -40.5v-28h-635v28q125 4 167 42.5t42 148.5v1079q0 113 -41.5 151t-167.5 40v29h502q346 0 488.5 -90t142.5 -302q0 -150 -92 -247.5t-271 -137.5l359 -522q81 -115 133.5 -150t125.5 -40l1 -29h-334zM471 788q9 0 26 -1
q45 -3 58 -3q188 0 291.5 89t103.5 251q0 156 -88 247t-239 91q-41 0 -79 -7.5t-73 -22.5v-644z" />
    <glyph glyph-name="S" unicode="S" horiz-adv-x="1200" 
d="M176 -28l-29 -1v525h29q25 -206 132.5 -323.5t269.5 -117.5q121 0 200.5 74t79.5 186q0 89 -45.5 156.5t-175.5 157.5q-34 23 -104 67q-178 113 -257 189q-55 53 -85.5 125t-30.5 151q0 172 115 278.5t300 106.5q85 0 177.5 -34.5t109.5 -34.5q32 0 51.5 17.5t24.5 51.5
h29v-495h-29q-21 201 -120.5 310t-260.5 109q-100 0 -166.5 -64.5t-66.5 -162.5q0 -149 291 -330q43 -26 65 -41q216 -135 293.5 -241t77.5 -246q0 -186 -121.5 -300t-319.5 -114q-102 0 -221.5 44t-144.5 44q-31 0 -48 -22t-20 -65z" />
    <glyph glyph-name="T" unicode="T" horiz-adv-x="1337" 
d="M770 219q0 -110 39.5 -148.5t154.5 -41.5l1 -29h-607l1 29q114 4 154 43.5t40 146.5v1215h-139q-197 0 -263.5 -51.5t-89.5 -192.5h-28l33 328h1204l33 -328h-29q-11 140 -89 192t-308 52h-107v-1215z" />
    <glyph glyph-name="U" unicode="U" horiz-adv-x="1581" 
d="M1032 1489v29h500v-29q-128 -6 -166.5 -37.5t-38.5 -138.5v-705q0 -155 -12.5 -240t-40.5 -141q-68 -128 -186.5 -192t-290.5 -64q-177 0 -301.5 58t-184.5 168q-30 58 -43.5 129.5t-13.5 220.5v28v723q0 113 -41.5 151t-167.5 40v29h635v-29q-126 -4 -167.5 -42
t-41.5 -149v-759q0 -255 82.5 -363t273.5 -108q217 0 313.5 112t96.5 365v768q0 107 -38.5 138.5t-166.5 37.5z" />
    <glyph glyph-name="V" unicode="V" horiz-adv-x="1305" 
d="M649 -29h-20l-494 1323q-49 132 -81.5 163.5t-86.5 31.5h-18v29h551v-29h-31q-72 0 -103.5 -23.5t-31.5 -74.5q0 -21 6 -46t18 -57l351 -917l344 899q11 30 17.5 60.5t6.5 55.5q0 55 -29 80t-92 25q-5 0 -15 -1t-15 -1v29h409v-29h-4q-56 0 -92.5 -37t-89.5 -174z" />
    <glyph glyph-name="W" unicode="W" horiz-adv-x="1886" 
d="M942 991l-342 -1020h-10l-455 1323q-41 120 -76 157.5t-92 37.5h-12v29h520v-29h-16q-64 0 -94.5 -24t-30.5 -74q0 -33 23 -98q1 -3 1 -5l306 -891l239 701l-108 291q-21 55 -54 77.5t-94 22.5v29h524v-29q-68 0 -104.5 -31t-36.5 -88q0 -21 7.5 -52t23.5 -75l303 -840
l283 867q12 39 18 69.5t6 49.5q0 52 -28.5 77t-88.5 25q-3 0 -13 -1t-15 -1v29h391v-29h-8q-55 0 -92.5 -45t-77.5 -166l-432 -1307h-19z" />
    <glyph glyph-name="X" unicode="X" horiz-adv-x="1384" 
d="M629 680l-342 -455q-32 -42 -47 -72t-15 -53q0 -36 33 -53t104 -18v-29h-432v29q119 19 247 187l7 9l398 523l-377 606q-46 72 -103 103.5t-141 31.5v29h635v-29q-6 0 -17 1t-16 1q-62 0 -92.5 -17.5t-30.5 -52.5q0 -15 10 -40t27 -52l246 -395l289 381q28 37 42.5 66
t14.5 49q0 31 -26.5 46t-84.5 15q-5 0 -19 -1t-21 -1v29h471v-29q-6 0 -14.5 1t-12.5 1q-56 0 -101 -27.5t-108 -107.5l-385 -498l422 -670q49 -79 105 -116t135 -43v-29h-617v28q91 4 122.5 20t31.5 54q-1 17 -8.5 38t-22.5 46z" />
    <glyph glyph-name="Y" unicode="Y" horiz-adv-x="1366" 
d="M780 672v-453q0 -113 41 -150.5t168 -40.5v-28h-635v28q125 4 167 42.5t42 148.5v436l-387 674q-49 86 -103.5 123t-131.5 37v29h610v-29h-29q-72 0 -104.5 -18t-32.5 -58q0 -17 8 -38t33 -64l311 -543l316 485q33 52 49 88.5t16 63.5q0 41 -32 62.5t-95 21.5h-18v29h452
v-29h-4q-65 0 -124.5 -47t-125.5 -152z" />
    <glyph glyph-name="Z" unicode="Z" horiz-adv-x="1356" 
d="M90 0l862 1430h-481q-128 0 -174 -52.5t-78 -228.5h-29l50 369h1013l-862 -1436h465q210 0 289 61t125 232h28l-92 -375h-1116z" />
    <glyph glyph-name="bracketleft" unicode="[" horiz-adv-x="770" 
d="M410 -57q0 -81 20 -102t96 -21h131v-58h-393v1756h393v-58h-131q-76 0 -96 -21t-20 -102v-1394z" />
    <glyph glyph-name="backslash" unicode="\" horiz-adv-x="664" 
d="M567 -190l-559 1708h82l563 -1708h-86z" />
    <glyph glyph-name="bracketright" unicode="]" horiz-adv-x="770" 
d="M360 -57v1394q0 81 -20 102t-96 21h-129v58h391v-1756h-391v58h129q76 0 96 21t20 102z" />
    <glyph glyph-name="asciicircum" unicode="^" horiz-adv-x="2048" 
d="M934 1462h178l520 -565h-92l-518 436l-520 -436h-90z" />
    <glyph glyph-name="underscore" unicode="_" 
d="M0 -365h1024v-118h-1024v118z" />
    <glyph glyph-name="grave" unicode="`" 
d="M412 1354l266 -234h-70l-295 137q-36 18 -53.5 38.5t-17.5 45.5q0 31 19.5 49.5t51.5 18.5q20 0 42 -12t57 -43z" />
    <glyph glyph-name="a" unicode="a" horiz-adv-x="1014" 
d="M655 139q-109 -82 -195 -123t-153 -41q-93 0 -157 68t-64 168q0 139 130 241.5t433 198.5v142q0 105 -47 156.5t-143 51.5q-80 0 -132.5 -43t-52.5 -108q0 -12 1 -29.5t1 -23.5q0 -43 -17 -62.5t-54 -19.5q-38 0 -57 21t-19 65q0 110 101 179t268 69t244 -76.5t77 -243.5
v-526q0 -62 13.5 -83.5t48.5 -21.5q18 0 40 11t52 34l14 -22q-44 -72 -93 -109t-99 -37q-63 0 -100 43.5t-40 120.5zM649 600q-231 -76 -314 -143t-83 -168q0 -85 48.5 -138t125.5 -53q56 0 113.5 30.5t109.5 86.5v385z" />
    <glyph glyph-name="b" unicode="b" horiz-adv-x="1081" 
d="M313 793v-641q42 -59 96 -89t117 -30q145 0 235.5 122t90.5 322q0 202 -80.5 320t-216.5 118q-63 0 -122.5 -30t-119.5 -92zM141 1268q0 93 -19.5 114t-78.5 21q-17 0 -26.5 -0.5t-18.5 -1.5v22q75 24 154 55t161 68v-682q74 100 145 142.5t163 42.5q174 0 282.5 -139
t108.5 -365q0 -113 -36.5 -216t-105.5 -184q-68 -82 -166.5 -126t-216.5 -44q-83 0 -167.5 28t-178.5 87v1178z" />
    <glyph glyph-name="c" unicode="c" horiz-adv-x="903" 
d="M834 379l18 -14q-47 -188 -146.5 -289t-236.5 -101q-172 0 -285.5 150.5t-113.5 384.5q0 243 123 393t319 150q130 0 216.5 -68t86.5 -166q0 -35 -22.5 -56.5t-59.5 -21.5q-42 0 -63.5 24.5t-36.5 96.5q-17 81 -49 109t-99 28q-119 0 -193.5 -116t-74.5 -305
q0 -201 87 -321t231 -120q93 0 167.5 60t131.5 182z" />
    <glyph glyph-name="d" unicode="d" horiz-adv-x="1108" 
d="M756 969v299q0 93 -20 114t-79 21q-16 0 -26 -0.5t-18 -1.5l-1 22q76 24 154.5 55t161.5 68v-1261q0 -119 23 -145.5t87 -26.5q10 0 15.5 0.5t9.5 0.5v-28q-83 -26 -160.5 -53.5t-148.5 -57.5v166q-64 -79 -142 -122.5t-157 -43.5q-173 0 -279 143t-106 378
q0 112 34.5 213.5t100.5 181.5q59 73 140 114.5t163 41.5q66 0 128 -19.5t120 -58.5zM754 215v565q0 102 -59 156.5t-169 54.5q-130 0 -213.5 -116t-83.5 -302q0 -211 86.5 -337.5t229.5 -126.5q75 0 132.5 29.5t76.5 76.5z" />
    <glyph glyph-name="e" unicode="e" horiz-adv-x="905" 
d="M809 651h-582q0 -4 -1 -13q-3 -48 -3 -67q0 -206 78 -322t215 -116q90 0 163.5 51t139.5 160l19 -12q-51 -177 -145 -267t-228 -90q-172 0 -284.5 147t-112.5 376q0 239 123.5 395t308.5 156q146 0 227.5 -96.5t81.5 -270.5v-31zM232 707h397q0 7 1 21t1 22
q0 114 -47.5 172.5t-139.5 58.5q-90 0 -147.5 -74t-64.5 -200z" />
    <glyph glyph-name="f" unicode="f" horiz-adv-x="639" 
d="M379 1024h207v-57h-207v-791q0 -89 37 -119.5t147 -32.5v-24h-504v24q90 4 119 32t29 128v783h-141v57h141v96q0 207 78.5 307.5t240.5 100.5q95 0 152 -38.5t57 -100.5q0 -36 -20.5 -56t-57.5 -20q-34 0 -54.5 17t-35.5 61q-17 52 -33.5 65.5t-46.5 13.5
q-60 0 -84 -41.5t-24 -160.5v-244z" />
    <glyph glyph-name="g" unicode="g" horiz-adv-x="1010" 
d="M309 23q-62 -37 -95.5 -87.5t-33.5 -109.5q0 -96 82.5 -146.5t239.5 -50.5q175 0 281 64t106 168q0 66 -39.5 98.5t-132.5 40.5q-16 1 -157 4.5t-251 18.5zM358 377q-57 -32 -83.5 -62t-26.5 -63q0 -83 308 -86h22t24 -1q173 -2 242 -42q55 -32 84.5 -88t29.5 -127
q0 -167 -152.5 -280t-385.5 -113q-168 0 -268.5 72t-100.5 192q0 70 47 130.5t152 125.5q-63 21 -93 56t-30 87q0 60 39.5 109t144.5 114q-92 60 -136 134t-44 170q0 143 104 243.5t252 100.5q64 0 118.5 -16.5t109.5 -51.5h239v-84h-155q25 -45 37 -92t12 -98
q0 -150 -99 -248.5t-249 -98.5q-32 0 -68 4.5t-74 12.5zM528 426q67 0 108.5 57t41.5 152q0 158 -63.5 257t-161.5 99q-65 0 -108.5 -59.5t-43.5 -153.5q0 -146 68 -249t159 -103z" />
    <glyph glyph-name="h" unicode="h" horiz-adv-x="1104" 
d="M190 1268q0 91 -20 113t-80 22q-17 0 -27 -0.5t-20 -1.5v22q76 24 155 54.5t162 68.5v-692q113 111 187.5 153t150.5 42q125 0 178.5 -86t53.5 -295v-492q0 -91 29 -121t110 -30v-25h-459v24q90 4 119 32t29 128v523q0 127 -35 176t-119 49q-53 0 -104.5 -28t-139.5 -109
v-619q0 -90 30 -120.5t112 -30.5v-25h-459v24q90 4 118.5 32t28.5 128v1084z" />
    <glyph glyph-name="i" unicode="i" horiz-adv-x="526" 
d="M356 176q0 -91 29 -121t111 -30v-25h-459v24q90 4 118.5 32t28.5 128v594q0 92 -17.5 112.5t-76.5 20.5q-18 0 -30 -0.5t-23 -0.5v24q83 25 162.5 55t156.5 66v-879zM172 1409q0 37 27 63.5t65 26.5q39 0 65.5 -26t26.5 -64t-27.5 -66t-64.5 -28q-38 0 -65 27.5t-27 66.5
z" />
    <glyph glyph-name="j" unicode="j" horiz-adv-x="500" 
d="M356 -53q0 -221 -76 -325.5t-237 -104.5q-85 0 -139 37t-54 94q0 38 20.5 60t55.5 22q28 0 51 -16.5t35 -44.5q5 -12 13 -31q28 -70 77 -70q46 0 64 42.5t18 164.5v1003q0 92 -17.5 112.5t-76.5 20.5q-18 0 -29 -0.5t-20 -0.5v24q82 26 161.5 56.5t153.5 64.5v-1108z
M172 1409q0 37 27 63.5t65 26.5q39 0 65.5 -26t26.5 -64t-27.5 -66t-64.5 -28q-38 0 -65 27.5t-27 66.5z" />
    <glyph glyph-name="k" unicode="k" horiz-adv-x="958" 
d="M332 565l262 287q29 32 42 55.5t13 42.5q0 26 -17 37.5t-57 11.5h-22v25h381v-25h-6q-66 0 -120 -28.5t-124 -106.5l-219 -241l340 -482q43 -61 83 -87t95 -30v-24h-422v24q48 4 69.5 15t22.5 32q0 14 -9.5 34.5t-29.5 48.5l-282 393v-371q0 -90 29.5 -120.5t111.5 -30.5
v-25h-459v24q90 4 119 32t29 128v1084q0 91 -20.5 113t-80.5 22q-16 0 -26.5 -0.5t-19.5 -1.5l-1 22q76 24 155 54.5t163 68.5v-981z" />
    <glyph glyph-name="l" unicode="l" horiz-adv-x="526" 
d="M344 176q0 -90 29.5 -120.5t111.5 -30.5v-25h-458v24q88 3 117.5 31.5t29.5 128.5v1084q0 93 -20 114t-78 21q-17 0 -27.5 -0.5t-21.5 -1.5v22q74 23 151.5 53t165.5 70v-1370z" />
    <glyph glyph-name="m" unicode="m" horiz-adv-x="1669" 
d="M190 778q0 91 -19.5 112t-78.5 21q-17 0 -28 -0.5t-21 -0.5v24q82 25 162 55.5t155 65.5v-201q113 111 188 153t152 42q84 0 141.5 -49t88.5 -146q122 116 192.5 155.5t143.5 39.5q124 0 177.5 -86t53.5 -295v-492q0 -90 29.5 -120.5t111.5 -30.5v-25h-458v24
q88 3 117.5 31.5t29.5 128.5v523q0 127 -34.5 176t-118.5 49q-53 0 -105 -28t-139 -109v-619q0 -91 29 -121t110 -30v-25h-459v24q90 4 119 32t29 128v523q0 127 -35 176t-119 49q-53 0 -104.5 -28t-139.5 -109v-619q0 -90 30 -120.5t112 -30.5v-25h-459v24q90 4 118.5 32
t28.5 128v594z" />
    <glyph glyph-name="n" unicode="n" horiz-adv-x="1104" 
d="M190 778q0 91 -19.5 112t-78.5 21q-17 0 -28 -0.5t-21 -0.5v24q82 25 162 55.5t155 65.5v-201q113 111 187.5 153t150.5 42q125 0 178.5 -86t53.5 -295v-492q0 -91 29 -121t110 -30v-25h-459v24q90 4 119 32t29 128v523q0 127 -35 176t-119 49q-53 0 -104.5 -28
t-139.5 -109v-619q0 -90 30 -120.5t112 -30.5v-25h-459v24q90 4 118.5 32t28.5 128v594z" />
    <glyph glyph-name="o" unicode="o" horiz-adv-x="1110" 
d="M528 991q-131 0 -205.5 -111t-74.5 -309q0 -238 93 -388t239 -150q138 0 209 101.5t71 299.5q0 250 -93 403.5t-239 153.5zM68 506q0 241 139.5 392t361.5 151q214 0 342.5 -143t128.5 -382q0 -250 -134.5 -399.5t-360.5 -149.5q-211 0 -344 148t-133 383z" />
    <glyph glyph-name="p" unicode="p" horiz-adv-x="1104" 
d="M348 748v-486q0 -104 58.5 -164.5t158.5 -60.5q142 0 217.5 114t75.5 326q0 209 -68.5 322.5t-193.5 113.5q-76 0 -138.5 -41.5t-109.5 -123.5zM348 72v-381q0 -89 29 -119.5t112 -32.5v-22h-458v22q89 4 118 33t29 129v1077q0 93 -19 113t-77 20q-18 0 -29 -0.5
t-22 -0.5v24q80 24 158.5 54t158.5 67v-224q86 115 162.5 165.5t161.5 50.5q159 0 259.5 -135.5t100.5 -354.5q0 -253 -128 -414t-324 -161q-69 0 -126 22t-106 68z" />
    <glyph glyph-name="q" unicode="q" horiz-adv-x="1065" 
d="M770 950l150 101v-1360q0 -89 29 -119.5t112 -32.5v-22h-459v22q90 4 119 33t29 129v438q-67 -80 -144.5 -122t-159.5 -42q-163 0 -269.5 143t-106.5 367q0 117 31 214.5t94 174.5q66 82 155 126t185 44q62 0 118.5 -22t116.5 -72zM748 225v568q0 85 -57.5 141.5
t-143.5 56.5q-139 0 -230.5 -122t-91.5 -316q0 -210 83 -333.5t220 -123.5q65 0 120.5 32.5t99.5 96.5z" />
    <glyph glyph-name="r" unicode="r" horiz-adv-x="725" 
d="M360 864q72 94 134 139.5t118 45.5q52 0 84.5 -29.5t32.5 -75.5q0 -45 -23.5 -70.5t-64.5 -25.5q-31 0 -73 28.5t-58 28.5q-33 0 -68.5 -30.5t-81.5 -98.5v-600q0 -92 30.5 -121.5t121.5 -29.5h25v-25h-494v24q90 4 118.5 32t28.5 128v594q0 91 -19.5 112t-78.5 21
q-17 0 -28 -0.5t-21 -0.5v24q82 25 162 55.5t155 65.5v-191z" />
    <glyph glyph-name="s" unicode="s" horiz-adv-x="834" 
d="M662 1024h24v-295h-24q-14 126 -75 193t-161 67q-81 0 -126.5 -41.5t-45.5 -113.5q0 -100 181 -218q7 -4 10 -6q183 -120 234.5 -194.5t51.5 -173.5q0 -114 -86 -190.5t-219 -76.5q-69 0 -148.5 24t-91.5 24q-18 -1 -29 -7t-16 -18h-24v328h24q27 -157 93.5 -225
t191.5 -68q82 0 128 40.5t46 112.5q0 109 -215 249l-15 10q-153 99 -200 166.5t-47 158.5q0 118 80.5 197.5t202.5 79.5q64 0 136.5 -27t82.5 -27q15 0 24 7.5t13 23.5z" />
    <glyph glyph-name="t" unicode="t" horiz-adv-x="629" 
d="M184 965h-143v26q104 42 175.5 121.5t111.5 200.5h28v-291h201v-57h-201v-674q0 -129 24 -168t87 -39q34 0 67.5 17.5t77.5 58.5l17 -15q-51 -86 -113 -128t-139 -42q-100 0 -146.5 69t-46.5 218v703z" />
    <glyph glyph-name="u" unicode="u" horiz-adv-x="1114" 
d="M752 266v586q0 91 -29.5 121.5t-114.5 30.5h-10v22h328v-776q0 -94 19.5 -114.5t78.5 -20.5q17 0 27 0.5t18 0.5v-24q-88 -29 -167 -58.5t-148 -58.5l-2 215q-77 -106 -165 -160.5t-184 -54.5q-125 0 -179 86t-54 297v494q0 90 -29.5 121t-111.5 31v22h311v-707
q0 -122 31.5 -171.5t107.5 -49.5q77 0 149.5 45t123.5 123z" />
    <glyph glyph-name="v" unicode="v" horiz-adv-x="915" 
d="M465 -25h-25l-325 891q-27 74 -56.5 102t-80.5 31l-1 25h406v-25q-55 0 -79.5 -17t-24.5 -54q0 -15 5.5 -40t16.5 -54l205 -576l213 541q16 39 24.5 74t8.5 59q0 38 -21 52.5t-74 14.5v25h271v-24q-34 -3 -60.5 -34t-56.5 -106z" />
    <glyph glyph-name="w" unicode="w" horiz-adv-x="1395" 
d="M729 641l-280 -666h-21l-313 891q-26 73 -56 101t-84 32v25h398v-25q-55 0 -80 -17t-25 -54q0 -14 6 -37.5t17 -56.5l201 -598l208 497l-51 135q-27 75 -56 103t-75 28h-10v25h407v-25h-10q-60 0 -86 -17.5t-26 -57.5q0 -25 17 -71q6 -15 9 -23l193 -560l209 555
q13 38 19.5 64t6.5 43q0 35 -20.5 51t-67.5 16h-10v25h270v-25q-37 -4 -62.5 -32.5t-53.5 -106.5l-332 -885h-19z" />
    <glyph glyph-name="x" unicode="x" horiz-adv-x="872" 
d="M504 0v24q37 2 57.5 16.5t20.5 41.5q0 19 -7 40.5t-22 47.5l-166 293l-180 -287q-18 -28 -27.5 -53t-9.5 -43q0 -29 17.5 -41t64.5 -15v-24h-285v25q44 0 80.5 29t79.5 98l227 368l-209 361q-40 68 -73 93t-78 25h-10v25h413v-25h-14q-35 0 -52.5 -13.5t-17.5 -41.5
q0 -17 6 -36.5t17 -37.5l121 -211l116 191q24 38 33.5 62t9.5 42q0 26 -17.5 35.5t-68.5 9.5v25h314v-25q-57 0 -101.5 -31t-93.5 -106l-164 -260l258 -434q41 -70 86 -104.5t101 -39.5v-24h-426z" />
    <glyph glyph-name="y" unicode="y" horiz-adv-x="932" 
d="M451 25l-318 841q-14 37 -31 66.5t-29 38.5q-14 11 -33.5 18t-45.5 11v24h405v-25q-55 0 -79.5 -17t-24.5 -54q0 -13 6.5 -37.5t17.5 -56.5l209 -596l215 571q13 33 20 66.5t7 54.5q0 36 -19.5 52.5t-60.5 16.5h-16v25h278v-25h-4q-36 0 -64.5 -32.5t-56.5 -106.5
l-360 -971q-80 -214 -154 -293t-180 -79q-62 0 -96.5 25.5t-34.5 70.5q0 38 25.5 61t68.5 23q25 0 70 -14.5t67 -14.5q59 0 100 55t95 230z" />
    <glyph glyph-name="z" unicode="z" horiz-adv-x="930" 
d="M244 57h307q164 0 211.5 46t58.5 186h25l-17 -289h-800l602 967h-279q-123 0 -165.5 -40.5t-47.5 -150.5h-24l6 248h733z" />
    <glyph glyph-name="braceleft" unicode="{" 
d="M846 1516v-51q-142 -2 -194 -55.5t-52 -209.5v-143q0 -226 -61 -308.5t-226 -113.5q165 -31 226 -113.5t61 -308.5v-143q0 -156 51.5 -208.5t194.5 -54.5v-51h-10q-217 0 -298 73.5t-81 272.5v213q0 158 -59 218t-222 73v60q165 15 223 74t58 216v213q0 200 81 273.5
t298 73.5h10z" />
    <glyph glyph-name="bar" unicode="|" 
d="M449 1565h126v-2048h-126v2048z" />
    <glyph glyph-name="braceright" unicode="}" 
d="M178 1516h10q216 0 297.5 -74t81.5 -273v-213q0 -157 58 -216t223 -74v-60q-163 -13 -222 -73t-59 -218v-213q0 -198 -81.5 -272t-297.5 -74h-10v51q143 2 194.5 54.5t51.5 208.5v143q0 226 61 308.5t226 113.5q-165 31 -226 113.5t-61 308.5v143q0 156 -52 209.5
t-194 55.5v51z" />
    <glyph glyph-name="asciitilde" unicode="~" horiz-adv-x="1706" 
d="M1530 758v-131q-101 -72 -197.5 -108t-189.5 -36q-43 0 -90.5 9t-100.5 26q-30 10 -87 31q-202 72 -302 72q-83 0 -173.5 -37.5t-211.5 -122.5v133q105 73 202 109t185 36q56 0 116.5 -12.5t174.5 -52.5q12 -4 35 -13q164 -59 254 -59q85 0 176 36.5t209 119.5z" />
    <glyph glyph-name="nonbreakingspace" unicode="&#xa0;" horiz-adv-x="1034" 
 />
    <glyph glyph-name="exclamdown" unicode="&#xa1;" horiz-adv-x="758" 
d="M367 1051l24 -1q7 -239 43.5 -541t36.5 -372q0 -86 -22.5 -126t-69.5 -40q-48 0 -70 39.5t-22 124.5q0 71 36.5 374.5t43.5 541.5zM274 1438q0 47 29.5 77.5t75.5 30.5q44 0 73 -31t29 -77t-29 -76.5t-73 -30.5q-46 0 -75.5 29.5t-29.5 77.5z" />
    <glyph glyph-name="cent" unicode="&#xa2;" horiz-adv-x="1034" 
d="M395 219l277 737q-25 24 -54 34.5t-65 10.5q-123 0 -195.5 -115.5t-72.5 -316.5q0 -123 26.5 -207t83.5 -143zM903 379l19 -10q-44 -186 -143 -289t-234 -103q-32 0 -67.5 8t-76.5 23l-96 -258h-82l109 299q-99 76 -147 187t-48 266q0 247 123 400t318 153q25 0 53.5 -5
t69.5 -15l90 239h83l-104 -273q55 -32 85 -79t30 -103q0 -36 -22 -57t-60 -21t-60.5 21.5t-33.5 66.5l-250 -661q27 -18 59.5 -27.5t69.5 -9.5q101 0 178 60.5t137 187.5z" />
    <glyph glyph-name="sterling" unicode="&#xa3;" horiz-adv-x="1034" 
d="M340 752h-205v69h193q-2 29 -3 62.5t-1 95.5q0 251 102 389.5t285 138.5q102 0 169.5 -62t67.5 -153q0 -41 -15.5 -61.5t-47.5 -20.5q-38 0 -55 19t-17 61q0 9 1 22t1 17q0 67 -32 101t-95 34q-105 0 -159 -84t-54 -247q0 -54 6 -131t19 -181h252v-69h-250v-50
q0 -134 -16.5 -249t-51.5 -222q96 -50 179 -76t151 -26q93 0 151.5 46t92.5 144h22q-15 -153 -100 -248.5t-205 -95.5q-72 0 -148 39.5t-174 126.5q-39 -88 -81 -127t-99 -39q-55 0 -92 39.5t-37 98.5q0 69 50.5 114t129.5 45q20 0 42 -3t46 -9q3 29 4 60t1 86
q0 65 -6.5 148t-20.5 198zM346 188q-23 15 -43 22t-39 7q-51 0 -84 -29.5t-33 -74.5q0 -41 20 -62.5t56 -21.5q52 0 82 39t41 120z" />
    <glyph glyph-name="currency" unicode="&#xa4;" horiz-adv-x="1241" 
d="M623 1200q-130 0 -222 -92t-92 -221q0 -131 91.5 -223.5t222.5 -92.5q129 0 221 93t92 223q0 129 -91.5 221t-221.5 92zM158 1419l207 -207q60 46 122.5 68.5t133.5 22.5t135.5 -22.5t124.5 -68.5l204 207l72 -73l-205 -205q43 -57 64.5 -121t21.5 -135t-21.5 -135.5
t-64.5 -120.5l205 -205l-72 -74l-204 207q-57 -44 -121.5 -66t-138.5 -22t-136.5 21.5t-119.5 66.5l-207 -207l-72 74l207 205q-44 58 -66 122t-22 134q0 69 22 133.5t66 122.5l-207 205z" />
    <glyph glyph-name="yen" unicode="&#xa5;" horiz-adv-x="1360" 
d="M455 887h-359v67h328l-152 342q-18 42 -40.5 73t-45.5 48q-21 15 -46 23.5t-56 11.5v29h487v-29h-14q-68 0 -96.5 -17t-28.5 -57q0 -26 32 -99q3 -7 5 -11l225 -531l252 484q32 59 46 95.5t14 57.5q0 40 -30 59t-93 19v29h397v-29q-72 -11 -130 -59t-103 -133l-160 -306
h327v-67h-364l-121 -228v-55h485v-67h-483v-324q0 -109 41 -145.5t168 -39.5v-28h-586v28q125 4 167 42t42 145v322h-467v67h467v41z" />
    <glyph glyph-name="brokenbar" unicode="&#xa6;" 
d="M449 408h126v-758h-126v758zM449 1432h126v-758h-126v758z" />
    <glyph glyph-name="section" unicode="&#xa7;" horiz-adv-x="1034" 
d="M772 604q0 46 -27.5 93t-87.5 104q-92 87 -147.5 121t-99.5 34q-66 0 -108 -40.5t-42 -102.5q0 -44 26 -89.5t81 -96.5q110 -105 161.5 -135.5t98.5 -30.5q61 0 103 41t42 102zM428 995q-106 83 -152.5 153t-46.5 144q0 116 81 185t218 69q114 0 182 -55.5t68 -147.5
q0 -47 -26.5 -72.5t-75.5 -25.5q-43 0 -69.5 24.5t-26.5 63.5q0 38 31.5 70.5t31.5 44.5q0 23 -36.5 39t-94.5 16q-72 0 -118 -41t-46 -104q0 -99 212 -267q64 -50 99 -79q126 -104 177 -184.5t51 -168.5q0 -109 -71 -175t-189 -66h-15q93 -72 140 -153t47 -167
q0 -109 -84.5 -181.5t-212.5 -72.5q-119 0 -199 60t-80 147q0 53 28 85t75 32q44 0 70 -24t26 -64t-30 -75.5t-30 -43.5q0 -30 40.5 -52t99.5 -22q81 0 129.5 44.5t48.5 119.5q0 104 -192 255q-11 9 -16 13q-205 163 -259.5 247t-54.5 184q0 114 70 179.5t192 65.5h8z" />
    <glyph glyph-name="dieresis" unicode="&#xa8;" 
d="M682 1339q38 0 66 -27.5t28 -66.5q0 -40 -27 -67t-67 -27q-39 0 -66.5 27.5t-27.5 66.5t28 66.5t66 27.5zM342 1339q38 0 66 -27.5t28 -66.5q0 -40 -27 -67t-67 -27q-39 0 -66.5 27.5t-27.5 66.5t28 66.5t66 27.5z" />
    <glyph glyph-name="copyright" unicode="&#xa9;" horiz-adv-x="1683" 
d="M1120 1096h35l2 -314h-41q-34 137 -104 206t-176 69q-123 0 -185.5 -94.5t-62.5 -278.5q0 -189 67 -285t199 -96q86 0 156 43t127 131l34 -24q-58 -105 -143 -157t-199 -52q-167 0 -285 123t-118 297q0 186 116 312t285 126q74 0 148 -34t82 -34q27 0 42 14.5t21 47.5z
M844 1303q-123 0 -237.5 -48.5t-200.5 -136.5q-88 -89 -134.5 -202.5t-46.5 -237.5q0 -125 47 -238.5t136 -201.5q88 -89 198.5 -135t235.5 -46q126 0 236.5 46t197.5 135q88 90 135 203t47 237t-47.5 240.5t-132.5 201.5q-86 87 -200.5 135t-233.5 48zM844 1382
q137 0 266.5 -53.5t226.5 -150.5q98 -97 152.5 -228.5t54.5 -271.5t-53 -268t-154 -230q-98 -100 -225 -152.5t-270 -52.5t-269 52.5t-227 152.5t-154 227t-53 271q0 140 53 268.5t152 229.5q98 99 228 152.5t272 53.5z" />
    <glyph glyph-name="ordfeminine" unicode="&#xaa;" horiz-adv-x="760" 
d="M491 899q-81 -58 -145.5 -86.5t-114.5 -28.5q-70 0 -117.5 47.5t-47.5 116.5q0 98 97 169.5t324 139.5v99q0 73 -35 109t-108 36q-60 0 -98.5 -29.5t-38.5 -74.5v-39q0 -31 -12.5 -44.5t-40.5 -13.5q-29 0 -43.5 15.5t-14.5 46.5q0 76 75.5 124t201.5 48t183.5 -53.5
t57.5 -169.5v-369q0 -42 10.5 -57t37.5 -15q12 0 28 7.5t39 23.5l12 -16q-33 -50 -69.5 -75.5t-75.5 -25.5q-47 0 -74 29.5t-31 85.5zM487 1221q-175 -54 -237 -100.5t-62 -116.5q0 -60 37 -97t94 -37q43 0 87 21.5t81 60.5v269z" />
    <glyph glyph-name="guillemotleft" unicode="&#xab;" horiz-adv-x="973" 
d="M463 516q142 113 274.5 248t149.5 135q8 0 11 -5t3 -17q0 -39 -70 -139.5t-184 -221.5q114 -120 184 -221t70 -139q0 -13 -3.5 -19t-10.5 -6q-17 0 -149.5 135.5t-274.5 249.5zM70 516q142 113 274.5 248t149.5 135q7 0 10.5 -5t3.5 -17q0 -39 -69.5 -140t-182.5 -221
q113 -119 182.5 -220.5t69.5 -139.5q0 -13 -4 -19t-10 -6q-18 0 -150 135.5t-274 249.5z" />
    <glyph glyph-name="logicalnot" unicode="&#xac;" horiz-adv-x="1706" 
d="M254 858h1198v-502h-115v385h-1083v117z" />
    <glyph glyph-name="sfthyphen" unicode="&#xad;" horiz-adv-x="725" 
d="M113 590h499v-133h-499v133z" />
    <glyph glyph-name="registered" unicode="&#xae;" horiz-adv-x="1683" 
d="M729 719q16 -1 32 -1.5t34 -0.5q112 0 173.5 45.5t61.5 128.5q0 73 -53 117.5t-143 44.5q-52 0 -78.5 -18.5t-26.5 -53.5v-262zM469 1092h393q147 0 232.5 -54.5t85.5 -146.5q0 -76 -69.5 -124t-217.5 -75q93 -29 142 -77.5t71 -133.5q6 -22 11 -63q13 -88 59 -88
q32 0 49.5 34t17.5 99h43v-12q0 -88 -40.5 -133.5t-119.5 -45.5q-46 0 -78.5 17t-48.5 49q-18 40 -21 113.5t-9 95.5q-20 68 -70.5 100.5t-136.5 32.5h-33v-248q0 -54 26.5 -75.5t98.5 -25.5v-40h-385v40q72 3 99.5 24.5t27.5 76.5v516q0 55 -26 76t-101 25v43zM844 1303
q-122 0 -236 -48t-202 -137t-134.5 -202.5t-46.5 -237.5q0 -127 46.5 -239t136.5 -201q88 -89 198.5 -135t235.5 -46q126 0 236.5 46t197.5 135q88 90 135 203t47 237t-47.5 241.5t-132.5 200.5q-86 87 -200.5 135t-233.5 48zM844 1382q138 0 268.5 -54t228.5 -152
q97 -97 150 -228t53 -272q0 -137 -55.5 -267.5t-157.5 -232.5q-99 -99 -224.5 -150t-270.5 -51q-137 0 -263 52.5t-227 152.5t-154 227t-53 271q0 140 53 268.5t152 229.5q98 99 228 152.5t272 53.5z" />
    <glyph glyph-name="macron" unicode="&#xaf;" 
d="M258 1305h508v-119h-508v119z" />
    <glyph glyph-name="degree" unicode="&#xb0;" horiz-adv-x="674" 
d="M338 1372q-84 0 -143.5 -58.5t-59.5 -142.5t59.5 -143t143.5 -59t142.5 59t58.5 143t-58.5 142.5t-142.5 58.5zM338 1454q117 0 200 -83t83 -200q0 -116 -83.5 -199t-201.5 -83t-199.5 82t-81.5 200q0 119 82.5 201t200.5 82z" />
    <glyph glyph-name="plusminus" unicode="&#xb1;" horiz-adv-x="1706" 
d="M254 158h1198v-117h-1198v117zM795 1180h118v-344h539v-117h-539v-344h-118v344h-541v117h541v344z" />
    <glyph glyph-name="twosuperior" unicode="&#xb2;" horiz-adv-x="682" 
d="M154 668h219q116 0 161.5 16.5t67.5 58.5h10l-55 -157h-522q49 57 146.5 156t137.5 147q75 90 108.5 163.5t33.5 147.5q0 93 -52 152t-133 59q-66 0 -117 -38.5t-75 -106.5h-21q25 104 93 164.5t161 60.5q108 0 177 -68.5t69 -177.5q0 -77 -31.5 -146.5t-128.5 -180.5
q-40 -44 -106 -110.5t-143 -139.5z" />
    <glyph glyph-name="threesuperior" unicode="&#xb3;" horiz-adv-x="682" 
d="M393 1118q89 -32 133.5 -91t44.5 -142q0 -76 -33.5 -137t-101.5 -109q-55 -37 -111 -55.5t-112 -18.5q-65 0 -104 25.5t-39 64.5q0 18 12.5 28.5t34.5 10.5q19 0 80.5 -34.5t107.5 -34.5q74 0 122 55t48 141q0 97 -63 157t-166 60q-10 0 -15.5 -0.5t-9.5 -0.5v18
q90 18 143.5 71t53.5 123q0 73 -41.5 117.5t-108.5 44.5q-55 0 -95 -25.5t-69 -78.5h-12q22 89 77.5 136.5t139.5 47.5q90 0 148.5 -51.5t58.5 -128.5q0 -61 -28 -105.5t-95 -87.5z" />
    <glyph glyph-name="acute" unicode="&#xb4;" 
d="M711 1257l-295 -137h-70l266 234q41 34 61 44.5t38 10.5q32 0 51.5 -18.5t19.5 -49.5q0 -25 -17.5 -45.5t-53.5 -38.5z" />
    <glyph glyph-name="mu" unicode="&#xb5;" horiz-adv-x="1120" 
d="M164 193q-27 -136 -52 -339q-34 -272 -112 -272q-37 0 -58.5 23.5t-21.5 64.5q0 40 64.5 273.5t105.5 427.5l109 514h147l-104 -492q-6 -30 -9.5 -58.5t-3.5 -53.5q0 -83 42 -129t118 -46q98 0 163.5 68.5t94.5 200.5l111 510h149l-114 -531q-13 -59 -17 -87.5t-4 -49.5
q0 -48 26 -78t66 -30q35 0 65.5 18t51.5 51t41 93.5t39 60.5q12 0 19 -10t7 -27q0 -25 -11 -66.5t-29 -83.5q-38 -82 -95 -122.5t-135 -40.5q-68 0 -108.5 51t-40.5 139v23q-46 -110 -116 -164t-165 -54q-96 0 -152.5 54.5t-70.5 161.5z" />
    <glyph glyph-name="paragraph" unicode="&#xb6;" 
d="M948 1479v-78h-125v-1401h-94v1401h-182v-1401h-96v782q-173 8 -274 102.5t-101 245.5q0 157 107.5 253t285.5 96h479z" />
    <glyph glyph-name="glyph121" unicode="&#xb7;" horiz-adv-x="516" 
d="M365 743q0 -49 -30 -80.5t-77 -31.5q-48 0 -78 31t-30 81t30.5 81.5t77.5 31.5t77 -31.5t30 -81.5z" />
    <glyph glyph-name="cedilla" unicode="&#xb8;" 
d="M465 0h59v-102q11 2 23.5 3t34.5 1q82 0 128 -39t46 -109q0 -75 -55 -117.5t-154 -42.5q-58 0 -126.5 18t-148.5 54l29 70q61 -33 116.5 -50.5t96.5 -17.5q59 0 88 21.5t29 64.5q0 37 -27.5 58.5t-75.5 21.5q-11 0 -26.5 -1.5t-36.5 -4.5v172z" />
    <glyph glyph-name="onesuperior" unicode="&#xb9;" horiz-adv-x="682" 
d="M178 586l1 16q70 2 95 24t25 81v585q0 54 -12 74t-41 20q-8 0 -24.5 -4t-51.5 -16v16q78 34 133.5 59.5t102.5 49.5v-774q0 -68 23.5 -89.5t96.5 -25.5v-16h-348z" />
    <glyph glyph-name="ordmasculine" unicode="&#xba;" horiz-adv-x="834" 
d="M397 1495q-99 0 -155 -78t-56 -217q0 -166 70 -271.5t178 -105.5q104 0 157.5 71t53.5 210q0 175 -69.5 283t-178.5 108zM51 1155q0 169 105 274t272 105q160 0 256 -99.5t96 -267.5q0 -175 -100.5 -279t-269.5 -104q-159 0 -259 103.5t-100 267.5z" />
    <glyph glyph-name="guillemotright" unicode="&#xbb;" horiz-adv-x="973" 
d="M905 516q-142 -113 -275.5 -249t-150.5 -136q-5 0 -8.5 6t-3.5 17q0 41 68 139.5t184 222.5q-115 123 -183.5 222.5t-68.5 140.5q0 10 3 15t9 5q17 0 150.5 -135t275.5 -248zM506 516q-143 -114 -275 -249.5t-149 -135.5q-7 0 -10.5 6t-3.5 17q0 40 68 138t186 224
q-116 124 -185 223.5t-69 139.5q0 10 3.5 15t10.5 5q17 0 149 -135t275 -248z" />
    <glyph glyph-name="onequarter" unicode="&#xbc;" horiz-adv-x="1645" 
d="M1491 303h121v-74h-121v-229h-102v229h-355v82l396 533h61v-541zM1077 303h312v424zM403 -29h-94l928 1536h96zM172 645v17q66 0 90.5 20t24.5 76v547q0 49 -12 68.5t-39 19.5q-11 0 -53 -13q-13 -4 -19 -5v14q63 26 118.5 51t106.5 49v-723q0 -63 22 -81.5t93 -22.5v-17
h-332z" />
    <glyph glyph-name="onehalf" unicode="&#xbd;" horiz-adv-x="1645" 
d="M1139 76h211q109 0 153 16t64 55h10l-51 -147h-500q46 52 139.5 144t132.5 139q72 83 104 151.5t32 138.5q0 87 -49.5 142t-127.5 55q-63 0 -112 -35.5t-72 -99.5h-18q22 97 87 153t154 56q103 0 168.5 -64t65.5 -166q0 -73 -31.5 -139t-120.5 -166q-25 -27 -90.5 -91
t-148.5 -142zM403 -29h-94l928 1536h96zM172 645v17q66 0 90.5 20t24.5 76v547q0 49 -12 68.5t-39 19.5q-11 0 -53 -13q-13 -4 -19 -5v14q63 26 118.5 51t106.5 49v-723q0 -63 22 -81.5t93 -22.5v-17h-332z" />
    <glyph glyph-name="threequarters" unicode="&#xbe;" horiz-adv-x="1645" 
d="M1491 303h121v-74h-121v-229h-102v229h-355v82l396 533h61v-541zM1077 303h312v424zM403 -29h-94l928 1536h96zM375 1143q85 -31 127.5 -85.5t42.5 -133.5q0 -72 -32 -129t-97 -101q-51 -34 -105 -51.5t-108 -17.5q-60 0 -98.5 24t-38.5 60q0 18 12.5 28.5t34.5 10.5
q17 0 75 -34t103 -34q70 0 116 52t46 132q0 91 -60 147t-157 56h-25v14q86 19 137 68.5t51 114.5q0 68 -39.5 109.5t-103.5 41.5q-54 0 -91.5 -23t-64.5 -73h-12q20 82 73 126t134 44q86 0 142.5 -48t56.5 -120q0 -56 -27.5 -97t-91.5 -81z" />
    <glyph glyph-name="questiondown" unicode="&#xbf;" horiz-adv-x="958" 
d="M412 1438q0 47 30 77.5t76 30.5q44 0 73.5 -31t29.5 -77t-29 -76.5t-74 -30.5q-47 0 -76.5 30t-29.5 77zM528 1096l21 -1q-2 -92 -16 -166.5t-41 -137.5q-13 -28 -40 -84q-104 -210 -104 -361q0 -160 55.5 -245t159.5 -85q71 0 123.5 46.5t52.5 107.5q0 31 -31.5 90
t-31.5 92q0 34 16 52t45 18q49 0 81 -40.5t32 -102.5q0 -133 -95.5 -220.5t-242.5 -87.5q-155 0 -246.5 93.5t-91.5 250.5q0 76 24 150t70 143q37 54 90.5 118t63.5 79q50 78 73.5 144.5t32.5 146.5z" />
    <glyph glyph-name="Agrave" unicode="&#xc0;" horiz-adv-x="1366" 
d="M336 528l-125 -301q-18 -45 -25.5 -71t-7.5 -43q0 -43 37.5 -63t118.5 -22v-28h-395v29q58 5 94.5 39.5t87.5 154.5l555 1323h22l498 -1307q1 -2 4 -10q79 -200 197 -200h4v-29h-545v29q75 0 109 24.5t34 77.5q0 23 -7.5 54t-22.5 73l-101 270h-532zM365 596h479
l-223 600zM584 1860l266 -234h-70l-295 137q-36 18 -53.5 38.5t-17.5 45.5q0 31 19.5 49.5t51.5 18.5q20 0 42 -12t57 -43z" />
    <glyph glyph-name="Aacute" unicode="&#xc1;" horiz-adv-x="1366" 
d="M336 528l-125 -301q-18 -45 -25.5 -71t-7.5 -43q0 -43 37.5 -63t118.5 -22v-28h-395v29q58 5 94.5 39.5t87.5 154.5l555 1323h22l498 -1307q1 -2 4 -10q79 -200 197 -200h4v-29h-545v29q75 0 109 24.5t34 77.5q0 23 -7.5 54t-22.5 73l-101 270h-532zM365 596h479
l-223 600zM883 1763l-295 -137h-70l266 234q41 34 61 44.5t38 10.5q32 0 51.5 -18.5t19.5 -49.5q0 -25 -17.5 -45.5t-53.5 -38.5z" />
    <glyph glyph-name="Acircumflex" unicode="&#xc2;" horiz-adv-x="1366" 
d="M336 528l-125 -301q-18 -45 -25.5 -71t-7.5 -43q0 -43 37.5 -63t118.5 -22v-28h-395v29q58 5 94.5 39.5t87.5 154.5l555 1323h22l498 -1307q1 -2 4 -10q79 -200 197 -200h4v-29h-545v29q75 0 109 24.5t34 77.5q0 23 -7.5 54t-22.5 73l-101 270h-532zM365 596h479
l-223 600zM747 1899l226 -273h-58l-231 162l-231 -162h-58l226 273h126z" />
    <glyph glyph-name="Atilde" unicode="&#xc3;" horiz-adv-x="1366" 
d="M336 528l-125 -301q-18 -45 -25.5 -71t-7.5 -43q0 -43 37.5 -63t118.5 -22v-28h-395v29q58 5 94.5 39.5t87.5 154.5l555 1323h22l498 -1307q1 -2 4 -10q79 -200 197 -200h4v-29h-545v29q75 0 109 24.5t34 77.5q0 23 -7.5 54t-22.5 73l-101 270h-532zM365 596h479
l-223 600zM917 1872h52q-20 -100 -68 -149.5t-125 -49.5q-14 0 -32 2.5t-42 8.5l-108 28q-17 4 -31 6t-26 2q-31 0 -52.5 -21t-36.5 -67h-51q19 104 68 155.5t129 51.5q19 0 34 -2t29 -6l111 -29q24 -6 36.5 -8t20.5 -2q33 0 55 19t37 61z" />
    <glyph glyph-name="Adieresis" unicode="&#xc4;" horiz-adv-x="1366" 
d="M336 528l-125 -301q-18 -45 -25.5 -71t-7.5 -43q0 -43 37.5 -63t118.5 -22v-28h-395v29q58 5 94.5 39.5t87.5 154.5l555 1323h22l498 -1307q1 -2 4 -10q79 -200 197 -200h4v-29h-545v29q75 0 109 24.5t34 77.5q0 23 -7.5 54t-22.5 73l-101 270h-532zM365 596h479
l-223 600zM854 1845q38 0 66 -27.5t28 -66.5q0 -40 -27 -67t-67 -27q-39 0 -66.5 27.5t-27.5 66.5t28 66.5t66 27.5zM514 1845q38 0 66 -27.5t28 -66.5q0 -40 -27 -67t-67 -27q-39 0 -66.5 27.5t-27.5 66.5t28 66.5t66 27.5z" />
    <glyph glyph-name="Aring" unicode="&#xc5;" horiz-adv-x="1366" 
d="M688 1890q-47 0 -78.5 -31.5t-31.5 -78.5q0 -48 31.5 -80.5t78.5 -32.5q48 0 80.5 32.5t32.5 80.5q0 47 -32.5 78.5t-80.5 31.5zM690 1972q81 0 137 -56t56 -136q0 -82 -56 -138.5t-137 -56.5t-137.5 56.5t-56.5 138.5q0 81 56 136.5t138 55.5zM336 528l-125 -301
q-18 -45 -25.5 -71t-7.5 -43q0 -43 37.5 -63t118.5 -22v-28h-395v29q58 5 94 38.5t88 155.5l549 1295h37l489 -1279l6 -15q77 -195 195 -195h4v-29h-545v29q75 0 109 24.5t34 77.5q0 23 -7.5 54t-22.5 73l-101 270h-532zM365 596h479l-223 600z" />
    <glyph glyph-name="AE" unicode="&#xc6;" horiz-adv-x="1882" 
d="M440 690h367v721zM403 623l-211 -413q-11 -22 -16.5 -44.5t-5.5 -44.5q0 -41 41 -65t116 -27l1 -29h-418v29q57 11 101 54.5t102 156.5l553 1052q18 35 28.5 68t10.5 55q0 42 -28 58t-106 16h-20v29h1159l14 -328h-22q-25 154 -83 207t-251 53h-342v-606h260
q184 0 237 46.5t56 180.5h31v-524h-31q-6 137 -55.5 182t-237.5 45h-260v-571q0 -83 22.5 -104t110.5 -21h180q158 0 232 20.5t121 69.5q34 35 65.5 88t63.5 129h26l-114 -385h-1135v28q127 4 168 42t41 149v404h-404z" />
    <glyph glyph-name="Ccedilla" unicode="&#xc7;" horiz-adv-x="1489" 
d="M1299 1546h26l41 -473h-20q-57 195 -179.5 298.5t-296.5 103.5q-254 0 -396 -182t-142 -509q0 -344 143 -532.5t402 -188.5q145 0 271 72.5t222 210.5l35 -22q-97 -172 -245.5 -262.5t-336.5 -90.5q-156 0 -290 56.5t-234 165.5q-102 109 -155.5 249t-53.5 297
q0 188 60 339.5t180 267.5q107 99 236 149.5t274 50.5q125 0 249 -48t136 -48q36 0 54 23.5t20 72.5zM698 0h59v-102q11 2 23.5 3t34.5 1q82 0 128 -39t46 -109q0 -75 -55 -117.5t-154 -42.5q-58 0 -126.5 18t-148.5 54l29 70q61 -33 116.5 -50.5t96.5 -17.5q59 0 88 21.5
t29 64.5q0 37 -27.5 58.5t-75.5 21.5q-11 0 -26.5 -1.5t-36.5 -4.5v172z" />
    <glyph glyph-name="Egrave" unicode="&#xc8;" horiz-adv-x="1339" 
d="M1167 1518l15 -328h-23q-25 154 -83 207t-251 53h-352v-606h270q184 0 237 46t57 181h30v-524h-30q-6 136 -55.5 181.5t-238.5 45.5h-270v-571q0 -84 22 -104.5t109 -20.5h193q158 0 231.5 20.5t120.5 69.5q35 37 67.5 91t63.5 126h25l-115 -385h-1145v28q125 2 167 40.5
t42 150.5v1079q0 111 -41.5 149t-167.5 42v29h1122zM570 1860l266 -234h-70l-295 137q-36 18 -53.5 38.5t-17.5 45.5q0 31 19.5 49.5t51.5 18.5q20 0 42 -12t57 -43z" />
    <glyph glyph-name="Eacute" unicode="&#xc9;" horiz-adv-x="1339" 
d="M1167 1518l15 -328h-23q-25 154 -83 207t-251 53h-352v-606h270q184 0 237 46t57 181h30v-524h-30q-6 136 -55.5 181.5t-238.5 45.5h-270v-571q0 -84 22 -104.5t109 -20.5h193q158 0 231.5 20.5t120.5 69.5q35 37 67.5 91t63.5 126h25l-115 -385h-1145v28q125 2 167 40.5
t42 150.5v1079q0 111 -41.5 149t-167.5 42v29h1122zM869 1763l-295 -137h-70l266 234q41 34 61 44.5t38 10.5q32 0 51.5 -18.5t19.5 -49.5q0 -25 -17.5 -45.5t-53.5 -38.5z" />
    <glyph glyph-name="Ecircumflex" unicode="&#xca;" horiz-adv-x="1339" 
d="M1167 1518l15 -328h-23q-25 154 -83 207t-251 53h-352v-606h270q184 0 237 46t57 181h30v-524h-30q-6 136 -55.5 181.5t-238.5 45.5h-270v-571q0 -84 22 -104.5t109 -20.5h193q158 0 231.5 20.5t120.5 69.5q35 37 67.5 91t63.5 126h25l-115 -385h-1145v28q125 2 167 40.5
t42 150.5v1079q0 111 -41.5 149t-167.5 42v29h1122zM733 1899l226 -273h-58l-231 162l-231 -162h-58l226 273h126z" />
    <glyph glyph-name="Edieresis" unicode="&#xcb;" horiz-adv-x="1339" 
d="M1167 1518l15 -328h-23q-25 154 -83 207t-251 53h-352v-606h270q184 0 237 46t57 181h30v-524h-30q-6 136 -55.5 181.5t-238.5 45.5h-270v-571q0 -84 22 -104.5t109 -20.5h193q158 0 231.5 20.5t120.5 69.5q35 37 67.5 91t63.5 126h25l-115 -385h-1145v28q125 2 167 40.5
t42 150.5v1079q0 111 -41.5 149t-167.5 42v29h1122zM840 1845q38 0 66 -27.5t28 -66.5q0 -40 -27 -67t-67 -27q-39 0 -66.5 27.5t-27.5 66.5t28 66.5t66 27.5zM500 1845q38 0 66 -27.5t28 -66.5q0 -40 -27 -67t-67 -27q-39 0 -66.5 27.5t-27.5 66.5t28 66.5t66 27.5z" />
    <glyph glyph-name="Igrave" unicode="&#xcc;" horiz-adv-x="725" 
d="M254 1298q0 113 -41.5 151t-167.5 40v29h635v-29q-126 -4 -167.5 -42t-41.5 -149v-1079q0 -113 41 -150.5t168 -40.5v-28h-635v28q125 4 167 42.5t42 148.5v1079zM262 1860l266 -234h-70l-295 137q-36 18 -53.5 38.5t-17.5 45.5q0 31 19.5 49.5t51.5 18.5q20 0 42 -12
t57 -43z" />
    <glyph glyph-name="Iacute" unicode="&#xcd;" horiz-adv-x="725" 
d="M254 1298q0 113 -41.5 151t-167.5 40v29h635v-29q-126 -4 -167.5 -42t-41.5 -149v-1079q0 -113 41 -150.5t168 -40.5v-28h-635v28q125 4 167 42.5t42 148.5v1079zM561 1763l-295 -137h-70l266 234q41 34 61 44.5t38 10.5q32 0 51.5 -18.5t19.5 -49.5q0 -25 -17.5 -45.5
t-53.5 -38.5z" />
    <glyph glyph-name="Icircumflex" unicode="&#xce;" horiz-adv-x="725" 
d="M254 1298q0 113 -41.5 151t-167.5 40v29h635v-29q-126 -4 -167.5 -42t-41.5 -149v-1079q0 -113 41 -150.5t168 -40.5v-28h-635v28q125 4 167 42.5t42 148.5v1079zM425 1899l226 -273h-58l-231 162l-231 -162h-58l226 273h126z" />
    <glyph glyph-name="Idieresis" unicode="&#xcf;" horiz-adv-x="725" 
d="M254 1298q0 113 -41.5 151t-167.5 40v29h635v-29q-126 -4 -167.5 -42t-41.5 -149v-1079q0 -113 41 -150.5t168 -40.5v-28h-635v28q125 4 167 42.5t42 148.5v1079zM532 1845q38 0 66 -27.5t28 -66.5q0 -40 -27 -67t-67 -27q-39 0 -66.5 27.5t-27.5 66.5t28 66.5t66 27.5z
M192 1845q38 0 66 -27.5t28 -66.5q0 -40 -27 -67t-67 -27q-39 0 -66.5 27.5t-27.5 66.5t28 66.5t66 27.5z" />
    <glyph glyph-name="Eth" unicode="&#xd0;" horiz-adv-x="1597" 
d="M682 1518q395 0 615.5 -196.5t220.5 -547.5q0 -195 -72.5 -350t-216.5 -266q-107 -84 -246 -121t-360 -37h-574v28q125 2 167 40.5t42 150.5v526h-209v70h209v483q0 111 -41.5 149t-166.5 42l-1 29h633zM477 745l1 -651q47 -9 91.5 -13.5t87.5 -4.5q292 0 455.5 180
t163.5 502t-164 503t-455 181q-38 0 -81.5 -5t-98.5 -16v-606h350v-70h-350z" />
    <glyph glyph-name="Ntilde" unicode="&#xd1;" horiz-adv-x="1565" 
d="M344 1237v-1034q0 -107 37.5 -137.5t167.5 -36.5v-29h-500v29q130 6 167.5 36.5t37.5 137.5v1165q-25 65 -69.5 94t-118.5 29q-7 0 -18 -1t-17 -1v29h377l817 -1076v871q0 106 -39 138t-168 38v29h502v-29q-130 -6 -168.5 -38t-38.5 -138v-1325h-19zM1015 1872h52
q-20 -100 -68 -149.5t-125 -49.5q-14 0 -32 2.5t-42 8.5l-108 28q-17 4 -31 6t-26 2q-31 0 -52.5 -21t-36.5 -67h-51q19 104 68 155.5t129 51.5q19 0 34 -2t29 -6l111 -29q24 -6 36.5 -8t20.5 -2q33 0 55 19t37 61z" />
    <glyph glyph-name="Ograve" unicode="&#xd2;" horiz-adv-x="1602" 
d="M801 43q219 0 345 190.5t126 526.5q0 335 -125.5 525t-345.5 190t-344.5 -190t-124.5 -525q0 -337 125 -527t344 -190zM801 -29q-319 0 -515 216.5t-196 572.5t195 571t516 215q320 0 515 -215t195 -571t-195.5 -572.5t-514.5 -216.5zM701 1860l266 -234h-70l-295 137
q-36 18 -53.5 38.5t-17.5 45.5q0 31 19.5 49.5t51.5 18.5q20 0 42 -12t57 -43z" />
    <glyph glyph-name="Oacute" unicode="&#xd3;" horiz-adv-x="1602" 
d="M801 43q219 0 345 190.5t126 526.5q0 335 -125.5 525t-345.5 190t-344.5 -190t-124.5 -525q0 -337 125 -527t344 -190zM801 -29q-319 0 -515 216.5t-196 572.5t195 571t516 215q320 0 515 -215t195 -571t-195.5 -572.5t-514.5 -216.5zM1000 1763l-295 -137h-70l266 234
q41 34 61 44.5t38 10.5q32 0 51.5 -18.5t19.5 -49.5q0 -25 -17.5 -45.5t-53.5 -38.5z" />
    <glyph glyph-name="Ocircumflex" unicode="&#xd4;" horiz-adv-x="1602" 
d="M801 43q219 0 345 190.5t126 526.5q0 335 -125.5 525t-345.5 190t-344.5 -190t-124.5 -525q0 -337 125 -527t344 -190zM801 -29q-319 0 -515 216.5t-196 572.5t195 571t516 215q320 0 515 -215t195 -571t-195.5 -572.5t-514.5 -216.5zM864 1899l226 -273h-58l-231 162
l-231 -162h-58l226 273h126z" />
    <glyph glyph-name="Otilde" unicode="&#xd5;" horiz-adv-x="1602" 
d="M801 43q219 0 345 190.5t126 526.5q0 335 -125.5 525t-345.5 190t-344.5 -190t-124.5 -525q0 -337 125 -527t344 -190zM801 -29q-319 0 -515 216.5t-196 572.5t195 571t516 215q320 0 515 -215t195 -571t-195.5 -572.5t-514.5 -216.5zM1034 1872h52q-20 -100 -68 -149.5
t-125 -49.5q-14 0 -32 2.5t-42 8.5l-108 28q-17 4 -31 6t-26 2q-31 0 -52.5 -21t-36.5 -67h-51q19 104 68 155.5t129 51.5q19 0 34 -2t29 -6l111 -29q24 -6 36.5 -8t20.5 -2q33 0 55 19t37 61z" />
    <glyph glyph-name="Odieresis" unicode="&#xd6;" horiz-adv-x="1602" 
d="M801 43q219 0 345 190.5t126 526.5q0 335 -125.5 525t-345.5 190t-344.5 -190t-124.5 -525q0 -337 125 -527t344 -190zM801 -29q-319 0 -515 216.5t-196 572.5t195 571t516 215q320 0 515 -215t195 -571t-195.5 -572.5t-514.5 -216.5zM971 1845q38 0 66 -27.5t28 -66.5
q0 -40 -27 -67t-67 -27q-39 0 -66.5 27.5t-27.5 66.5t28 66.5t66 27.5zM631 1845q38 0 66 -27.5t28 -66.5q0 -40 -27 -67t-67 -27q-39 0 -66.5 27.5t-27.5 66.5t28 66.5t66 27.5z" />
    <glyph glyph-name="multiply" unicode="&#xd7;" horiz-adv-x="1706" 
d="M381 1169l477 -477l475 477l82 -82l-475 -477l475 -475l-82 -82l-475 475l-477 -475l-80 82l475 475l-475 477z" />
    <glyph glyph-name="Oslash" unicode="&#xd8;" horiz-adv-x="1602" 
d="M176 -119l166 250q-125 108 -188.5 266.5t-63.5 362.5q0 356 195 571t516 215q109 0 209 -29.5t190 -89.5l111 166h90l-144 -209q129 -111 191.5 -265.5t62.5 -358.5q0 -359 -194 -574t-516 -215q-112 0 -208 29t-190 90l-141 -209h-86zM1122 1309q-57 87 -133 126.5
t-188 39.5q-220 0 -344.5 -190t-124.5 -525q0 -161 26.5 -280t81.5 -208zM479 207q60 -80 142.5 -122t179.5 -42q219 0 345 190.5t126 526.5q0 161 -26.5 280.5t-80.5 200.5z" />
    <glyph glyph-name="Ugrave" unicode="&#xd9;" horiz-adv-x="1581" 
d="M1032 1489v29h500v-29q-128 -6 -166.5 -37.5t-38.5 -138.5v-705q0 -155 -12.5 -240t-40.5 -141q-68 -128 -186.5 -192t-290.5 -64q-177 0 -301.5 58t-184.5 168q-30 58 -43.5 129.5t-13.5 220.5v28v723q0 113 -41.5 151t-167.5 40v29h635v-29q-126 -4 -167.5 -42
t-41.5 -149v-759q0 -255 82.5 -363t273.5 -108q217 0 313.5 112t96.5 365v768q0 107 -38.5 138.5t-166.5 37.5zM766 1860l266 -234h-70l-295 137q-36 18 -53.5 38.5t-17.5 45.5q0 31 19.5 49.5t51.5 18.5q20 0 42 -12t57 -43z" />
    <glyph glyph-name="Uacute" unicode="&#xda;" horiz-adv-x="1581" 
d="M1032 1489v29h500v-29q-128 -6 -166.5 -37.5t-38.5 -138.5v-705q0 -155 -12.5 -240t-40.5 -141q-68 -128 -186.5 -192t-290.5 -64q-177 0 -301.5 58t-184.5 168q-30 58 -43.5 129.5t-13.5 220.5v28v723q0 113 -41.5 151t-167.5 40v29h635v-29q-126 -4 -167.5 -42
t-41.5 -149v-759q0 -255 82.5 -363t273.5 -108q217 0 313.5 112t96.5 365v768q0 107 -38.5 138.5t-166.5 37.5zM1065 1763l-295 -137h-70l266 234q41 34 61 44.5t38 10.5q32 0 51.5 -18.5t19.5 -49.5q0 -25 -17.5 -45.5t-53.5 -38.5z" />
    <glyph glyph-name="Ucircumflex" unicode="&#xdb;" horiz-adv-x="1581" 
d="M1032 1489v29h500v-29q-128 -6 -166.5 -37.5t-38.5 -138.5v-705q0 -155 -12.5 -240t-40.5 -141q-68 -128 -186.5 -192t-290.5 -64q-177 0 -301.5 58t-184.5 168q-30 58 -43.5 129.5t-13.5 220.5v28v723q0 113 -41.5 151t-167.5 40v29h635v-29q-126 -4 -167.5 -42
t-41.5 -149v-759q0 -255 82.5 -363t273.5 -108q217 0 313.5 112t96.5 365v768q0 107 -38.5 138.5t-166.5 37.5zM929 1899l226 -273h-58l-231 162l-231 -162h-58l226 273h126z" />
    <glyph glyph-name="Udieresis" unicode="&#xdc;" horiz-adv-x="1581" 
d="M1032 1489v29h500v-29q-128 -6 -166.5 -37.5t-38.5 -138.5v-705q0 -155 -12.5 -240t-40.5 -141q-68 -128 -186.5 -192t-290.5 -64q-177 0 -301.5 58t-184.5 168q-30 58 -43.5 129.5t-13.5 220.5v28v723q0 113 -41.5 151t-167.5 40v29h635v-29q-126 -4 -167.5 -42
t-41.5 -149v-759q0 -255 82.5 -363t273.5 -108q217 0 313.5 112t96.5 365v768q0 107 -38.5 138.5t-166.5 37.5zM1036 1845q38 0 66 -27.5t28 -66.5q0 -40 -27 -67t-67 -27q-39 0 -66.5 27.5t-27.5 66.5t28 66.5t66 27.5zM696 1845q38 0 66 -27.5t28 -66.5q0 -40 -27 -67
t-67 -27q-39 0 -66.5 27.5t-27.5 66.5t28 66.5t66 27.5z" />
    <glyph glyph-name="Yacute" unicode="&#xdd;" horiz-adv-x="1366" 
d="M780 672v-453q0 -113 41 -150.5t168 -40.5v-28h-635v28q125 4 167 42.5t42 148.5v436l-387 674q-49 86 -103.5 123t-131.5 37v29h610v-29h-29q-72 0 -104.5 -18t-32.5 -58q0 -17 8 -38t33 -64l311 -543l316 485q33 52 49 88.5t16 63.5q0 41 -32 62.5t-95 21.5h-18v29h452
v-29h-4q-65 0 -124.5 -47t-125.5 -152zM883 1763l-295 -137h-70l266 234q41 34 61 44.5t38 10.5q32 0 51.5 -18.5t19.5 -49.5q0 -25 -17.5 -45.5t-53.5 -38.5z" />
    <glyph glyph-name="Thorn" unicode="&#xde;" horiz-adv-x="1247" 
d="M471 502q40 -31 87 -46.5t101 -15.5q142 0 222 88t80 244q0 162 -93 261.5t-243 99.5q-44 0 -83.5 -5.5t-70.5 -15.5v-610zM254 1298q0 113 -41.5 151t-167.5 40v29h635v-29q-126 -4 -167.5 -42t-41.5 -149l1 -106q20 1 43 1.5t67 0.5q309 0 458.5 -102t149.5 -314
q0 -183 -125.5 -295t-331.5 -112q-72 0 -137.5 14t-124.5 43v-209q0 -113 41 -150.5t168 -40.5v-28h-635v28q125 4 167 42.5t42 148.5v1079z" />
    <glyph glyph-name="germandbls" unicode="&#xdf;" horiz-adv-x="1114" 
d="M352 0h-313v30q82 2 111.5 35.5t29.5 133.5v800q0 274 92 400.5t289 126.5q182 0 285.5 -95t103.5 -262q0 -114 -65 -193t-209 -138q186 -53 272 -151t86 -257q0 -197 -109 -326t-272 -129q-86 0 -144 48.5t-58 117.5q0 38 25 60t69 22q35 0 52.5 -20t23.5 -68
q6 -66 23 -83t56 -17q75 0 116.5 80.5t41.5 228.5q0 214 -68.5 333.5t-191.5 119.5q-6 0 -18 -1t-17 -1q-27 0 -41 8.5t-14 23.5q0 29 54.5 37.5t76.5 18.5q68 30 103.5 102t35.5 180q0 136 -59.5 219.5t-153.5 83.5q-106 0 -159.5 -77t-53.5 -232v-1159z" />
    <glyph glyph-name="agrave" unicode="&#xe0;" horiz-adv-x="1014" 
d="M655 139q-109 -82 -195 -123t-153 -41q-93 0 -157 68t-64 168q0 139 130 241.5t433 198.5v142q0 105 -47 156.5t-143 51.5q-80 0 -132.5 -43t-52.5 -108q0 -12 1 -29.5t1 -23.5q0 -43 -17 -62.5t-54 -19.5q-38 0 -57 21t-19 65q0 110 101 179t268 69t244 -76.5t77 -243.5
v-526q0 -62 13.5 -83.5t48.5 -21.5q18 0 40 11t52 34l14 -22q-44 -72 -93 -109t-99 -37q-63 0 -100 43.5t-40 120.5zM649 600q-231 -76 -314 -143t-83 -168q0 -85 48.5 -138t125.5 -53q56 0 113.5 30.5t109.5 86.5v385zM381 1354l266 -234h-70l-295 137q-36 18 -53.5 38.5
t-17.5 45.5q0 31 19.5 49.5t51.5 18.5q20 0 42 -12t57 -43z" />
    <glyph glyph-name="aacute" unicode="&#xe1;" horiz-adv-x="1014" 
d="M655 139q-109 -82 -195 -123t-153 -41q-93 0 -157 68t-64 168q0 139 130 241.5t433 198.5v142q0 105 -47 156.5t-143 51.5q-80 0 -132.5 -43t-52.5 -108q0 -12 1 -29.5t1 -23.5q0 -43 -17 -62.5t-54 -19.5q-38 0 -57 21t-19 65q0 110 101 179t268 69t244 -76.5t77 -243.5
v-526q0 -62 13.5 -83.5t48.5 -21.5q18 0 40 11t52 34l14 -22q-44 -72 -93 -109t-99 -37q-63 0 -100 43.5t-40 120.5zM649 600q-231 -76 -314 -143t-83 -168q0 -85 48.5 -138t125.5 -53q56 0 113.5 30.5t109.5 86.5v385zM680 1257l-295 -137h-70l266 234q41 34 61 44.5
t38 10.5q32 0 51.5 -18.5t19.5 -49.5q0 -25 -17.5 -45.5t-53.5 -38.5z" />
    <glyph glyph-name="acircumflex" unicode="&#xe2;" horiz-adv-x="1014" 
d="M655 139q-109 -82 -195 -123t-153 -41q-93 0 -157 68t-64 168q0 139 130 241.5t433 198.5v142q0 105 -47 156.5t-143 51.5q-80 0 -132.5 -43t-52.5 -108q0 -12 1 -29.5t1 -23.5q0 -43 -17 -62.5t-54 -19.5q-38 0 -57 21t-19 65q0 110 101 179t268 69t244 -76.5t77 -243.5
v-526q0 -62 13.5 -83.5t48.5 -21.5q18 0 40 11t52 34l14 -22q-44 -72 -93 -109t-99 -37q-63 0 -100 43.5t-40 120.5zM649 600q-231 -76 -314 -143t-83 -168q0 -85 48.5 -138t125.5 -53q56 0 113.5 30.5t109.5 86.5v385zM544 1393l226 -273h-58l-231 162l-231 -162h-58
l226 273h126z" />
    <glyph glyph-name="atilde" unicode="&#xe3;" horiz-adv-x="1014" 
d="M655 139q-109 -82 -195 -123t-153 -41q-93 0 -157 68t-64 168q0 139 130 241.5t433 198.5v142q0 105 -47 156.5t-143 51.5q-80 0 -132.5 -43t-52.5 -108q0 -12 1 -29.5t1 -23.5q0 -43 -17 -62.5t-54 -19.5q-38 0 -57 21t-19 65q0 110 101 179t268 69t244 -76.5t77 -243.5
v-526q0 -62 13.5 -83.5t48.5 -21.5q18 0 40 11t52 34l14 -22q-44 -72 -93 -109t-99 -37q-63 0 -100 43.5t-40 120.5zM649 600q-231 -76 -314 -143t-83 -168q0 -85 48.5 -138t125.5 -53q56 0 113.5 30.5t109.5 86.5v385zM714 1366h52q-20 -100 -68 -149.5t-125 -49.5
q-14 0 -32 2.5t-42 8.5l-108 28q-17 4 -31 6t-26 2q-31 0 -52.5 -21t-36.5 -67h-51q19 104 68 155.5t129 51.5q19 0 34 -2t29 -6l111 -29q24 -6 36.5 -8t20.5 -2q33 0 55 19t37 61z" />
    <glyph glyph-name="adieresis" unicode="&#xe4;" horiz-adv-x="1014" 
d="M655 139q-109 -82 -195 -123t-153 -41q-93 0 -157 68t-64 168q0 139 130 241.5t433 198.5v142q0 105 -47 156.5t-143 51.5q-80 0 -132.5 -43t-52.5 -108q0 -12 1 -29.5t1 -23.5q0 -43 -17 -62.5t-54 -19.5q-38 0 -57 21t-19 65q0 110 101 179t268 69t244 -76.5t77 -243.5
v-526q0 -62 13.5 -83.5t48.5 -21.5q18 0 40 11t52 34l14 -22q-44 -72 -93 -109t-99 -37q-63 0 -100 43.5t-40 120.5zM649 600q-231 -76 -314 -143t-83 -168q0 -85 48.5 -138t125.5 -53q56 0 113.5 30.5t109.5 86.5v385zM651 1339q38 0 66 -27.5t28 -66.5q0 -40 -27 -67
t-67 -27q-39 0 -66.5 27.5t-27.5 66.5t28 66.5t66 27.5zM311 1339q38 0 66 -27.5t28 -66.5q0 -40 -27 -67t-67 -27q-39 0 -66.5 27.5t-27.5 66.5t28 66.5t66 27.5z" />
    <glyph glyph-name="aring" unicode="&#xe5;" horiz-adv-x="1014" 
d="M512 1491q81 0 137 -56t56 -137t-56 -137.5t-137 -56.5t-138 56.5t-57 137.5t56.5 137t138.5 56zM510 1409q-47 0 -79 -32.5t-32 -80.5q0 -47 31.5 -78.5t79.5 -31.5t80.5 31.5t32.5 78.5q0 48 -32.5 80.5t-80.5 32.5zM655 139q-109 -82 -195 -123t-153 -41
q-93 0 -157 68t-64 168q0 139 130 241.5t433 198.5v142q0 105 -47 156.5t-143 51.5q-80 0 -132.5 -43t-52.5 -108q0 -12 1 -29.5t1 -23.5q0 -43 -17 -62.5t-54 -19.5q-38 0 -57 21t-19 65q0 110 101 179t268 69t244 -76.5t77 -243.5v-526q0 -62 13.5 -83.5t48.5 -21.5
q18 0 40 11t52 34l14 -22q-44 -72 -93 -109t-99 -37q-63 0 -100 43.5t-40 120.5zM649 600q-231 -76 -314 -143t-83 -168q0 -85 48.5 -138t125.5 -53q56 0 113.5 30.5t109.5 86.5v385z" />
    <glyph glyph-name="ae" unicode="&#xe6;" horiz-adv-x="1309" 
d="M541 629v127q0 136 -33 185.5t-115 49.5q-76 0 -114.5 -39.5t-38.5 -117.5q0 -3 1 -13t1 -18q0 -62 -16 -85.5t-56 -23.5q-39 0 -58.5 20t-19.5 60q0 115 93.5 195t232.5 80q81 0 140 -28t99 -85q55 58 114 85.5t128 27.5q146 0 235 -108t95 -294h-522v-39
q0 -245 61.5 -360t192.5 -115q78 0 147 50.5t127 150.5l20 -12q-51 -158 -149 -249t-215 -91q-87 0 -152.5 40.5t-120.5 129.5q-93 -92 -172.5 -131t-169.5 -39q-102 0 -164.5 66.5t-62.5 176.5q0 144 112.5 237.5t379.5 166.5zM1042 700v29q0 120 -46 187t-128 67
q-80 0 -119.5 -64.5t-39.5 -195.5v-23h333zM541 569q-162 -28 -251 -101.5t-89 -176.5q0 -84 49.5 -134.5t132.5 -50.5q62 0 114 24.5t87 70.5q-22 87 -32.5 169.5t-10.5 159.5v39z" />
    <glyph glyph-name="ccedilla" unicode="&#xe7;" horiz-adv-x="903" 
d="M834 379l18 -14q-47 -188 -146.5 -289t-236.5 -101q-172 0 -285.5 150.5t-113.5 384.5q0 243 123 393t319 150q130 0 216.5 -68t86.5 -166q0 -35 -22.5 -56.5t-59.5 -21.5q-42 0 -63.5 24.5t-36.5 96.5q-17 81 -49 109t-99 28q-119 0 -193.5 -116t-74.5 -305
q0 -201 87 -321t231 -120q93 0 167.5 60t131.5 182zM406 0h59v-102q11 2 23.5 3t34.5 1q82 0 128 -39t46 -109q0 -75 -55 -117.5t-154 -42.5q-58 0 -126.5 18t-148.5 54l29 70q61 -33 116.5 -50.5t96.5 -17.5q59 0 88 21.5t29 64.5q0 37 -27.5 58.5t-75.5 21.5
q-11 0 -26.5 -1.5t-36.5 -4.5v172z" />
    <glyph glyph-name="egrave" unicode="&#xe8;" horiz-adv-x="905" 
d="M809 651h-582q0 -4 -1 -13q-3 -48 -3 -67q0 -206 78 -322t215 -116q90 0 163.5 51t139.5 160l19 -12q-51 -177 -145 -267t-228 -90q-172 0 -284.5 147t-112.5 376q0 239 123.5 395t308.5 156q146 0 227.5 -96.5t81.5 -270.5v-31zM232 707h397q0 7 1 21t1 22
q0 114 -47.5 172.5t-139.5 58.5q-90 0 -147.5 -74t-64.5 -200zM404 1354l266 -234h-70l-295 137q-36 18 -53.5 38.5t-17.5 45.5q0 31 19.5 49.5t51.5 18.5q20 0 42 -12t57 -43z" />
    <glyph glyph-name="eacute" unicode="&#xe9;" horiz-adv-x="905" 
d="M809 651h-582q0 -4 -1 -13q-3 -48 -3 -67q0 -206 78 -322t215 -116q90 0 163.5 51t139.5 160l19 -12q-51 -177 -145 -267t-228 -90q-172 0 -284.5 147t-112.5 376q0 239 123.5 395t308.5 156q146 0 227.5 -96.5t81.5 -270.5v-31zM232 707h397q0 7 1 21t1 22
q0 114 -47.5 172.5t-139.5 58.5q-90 0 -147.5 -74t-64.5 -200zM703 1257l-295 -137h-70l266 234q41 34 61 44.5t38 10.5q32 0 51.5 -18.5t19.5 -49.5q0 -25 -17.5 -45.5t-53.5 -38.5z" />
    <glyph glyph-name="ecircumflex" unicode="&#xea;" horiz-adv-x="905" 
d="M809 651h-582q0 -4 -1 -13q-3 -48 -3 -67q0 -206 78 -322t215 -116q90 0 163.5 51t139.5 160l19 -12q-51 -177 -145 -267t-228 -90q-172 0 -284.5 147t-112.5 376q0 239 123.5 395t308.5 156q146 0 227.5 -96.5t81.5 -270.5v-31zM232 707h397q0 7 1 21t1 22
q0 114 -47.5 172.5t-139.5 58.5q-90 0 -147.5 -74t-64.5 -200zM567 1393l226 -273h-58l-231 162l-231 -162h-58l226 273h126z" />
    <glyph glyph-name="edieresis" unicode="&#xeb;" horiz-adv-x="905" 
d="M809 651h-582q0 -4 -1 -13q-3 -48 -3 -67q0 -206 78 -322t215 -116q90 0 163.5 51t139.5 160l19 -12q-51 -177 -145 -267t-228 -90q-172 0 -284.5 147t-112.5 376q0 239 123.5 395t308.5 156q146 0 227.5 -96.5t81.5 -270.5v-31zM232 707h397q0 7 1 21t1 22
q0 114 -47.5 172.5t-139.5 58.5q-90 0 -147.5 -74t-64.5 -200zM674 1339q38 0 66 -27.5t28 -66.5q0 -40 -27 -67t-67 -27q-39 0 -66.5 27.5t-27.5 66.5t28 66.5t66 27.5zM334 1339q38 0 66 -27.5t28 -66.5q0 -40 -27 -67t-67 -27q-39 0 -66.5 27.5t-27.5 66.5t28 66.5
t66 27.5z" />
    <glyph glyph-name="igrave" unicode="&#xec;" horiz-adv-x="526" 
d="M356 176q0 -91 29 -121t111 -30v-25h-459v24q90 4 118.5 32t28.5 128v594q0 92 -17.5 112.5t-76.5 20.5q-18 0 -30 -0.5t-23 -0.5v24q83 25 162.5 55t156.5 66v-879zM164 1354l266 -234h-70l-295 137q-36 18 -53.5 38.5t-17.5 45.5q0 31 19.5 49.5t51.5 18.5q20 0 42 -12
t57 -43z" />
    <glyph glyph-name="iacute" unicode="&#xed;" horiz-adv-x="526" 
d="M356 176q0 -91 29 -121t111 -30v-25h-459v24q90 4 118.5 32t28.5 128v594q0 92 -17.5 112.5t-76.5 20.5q-18 0 -30 -0.5t-23 -0.5v24q83 25 162.5 55t156.5 66v-879zM463 1257l-295 -137h-70l266 234q41 34 61 44.5t38 10.5q32 0 51.5 -18.5t19.5 -49.5
q0 -25 -17.5 -45.5t-53.5 -38.5z" />
    <glyph glyph-name="icircumflex" unicode="&#xee;" horiz-adv-x="526" 
d="M356 176q0 -91 29 -121t111 -30v-25h-459v24q90 4 118.5 32t28.5 128v594q0 92 -17.5 112.5t-76.5 20.5q-18 0 -30 -0.5t-23 -0.5v24q83 25 162.5 55t156.5 66v-879zM327 1393l226 -273h-58l-231 162l-231 -162h-58l226 273h126z" />
    <glyph glyph-name="idieresis" unicode="&#xef;" horiz-adv-x="526" 
d="M356 176q0 -91 29 -121t111 -30v-25h-459v24q90 4 118.5 32t28.5 128v594q0 92 -17.5 112.5t-76.5 20.5q-18 0 -30 -0.5t-23 -0.5v24q83 25 162.5 55t156.5 66v-879zM434 1339q38 0 66 -27.5t28 -66.5q0 -40 -27 -67t-67 -27q-39 0 -66.5 27.5t-27.5 66.5t28 66.5
t66 27.5zM94 1339q38 0 66 -27.5t28 -66.5q0 -40 -27 -67t-67 -27q-39 0 -66.5 27.5t-27.5 66.5t28 66.5t66 27.5z" />
    <glyph glyph-name="eth" unicode="&#xf0;" horiz-adv-x="1112" 
d="M659 1004q-47 76 -90 136t-82 103l-305 -131l-24 53l291 127q-38 54 -84.5 105.5t-118.5 120.5l30 38q61 -33 130 -87.5t153 -133.5l322 135l26 -55l-293 -123q215 -183 320.5 -377.5t105.5 -404.5q0 -243 -135 -389t-360 -146q-210 0 -342.5 144.5t-132.5 374.5
t134.5 379t340.5 149q26 0 54.5 -4.5t59.5 -13.5zM537 967q-131 0 -201 -105t-70 -299q0 -234 87.5 -379t226.5 -145q135 0 203.5 99.5t68.5 295.5q0 236 -89 384.5t-226 148.5z" />
    <glyph glyph-name="ntilde" unicode="&#xf1;" horiz-adv-x="1104" 
d="M190 778q0 91 -19.5 112t-78.5 21q-17 0 -28 -0.5t-21 -0.5v24q82 25 162 55.5t155 65.5v-201q113 111 187.5 153t150.5 42q125 0 178.5 -86t53.5 -295v-492q0 -91 29 -121t110 -30v-25h-459v24q90 4 119 32t29 128v523q0 127 -35 176t-119 49q-53 0 -104.5 -28
t-139.5 -109v-619q0 -90 30 -120.5t112 -30.5v-25h-459v24q90 4 118.5 32t28.5 128v594zM786 1366h52q-20 -100 -68 -149.5t-125 -49.5q-14 0 -32 2.5t-42 8.5l-108 28q-17 4 -31 6t-26 2q-31 0 -52.5 -21t-36.5 -67h-51q19 104 68 155.5t129 51.5q19 0 34 -2t29 -6l111 -29
q24 -6 36.5 -8t20.5 -2q33 0 55 19t37 61z" />
    <glyph glyph-name="ograve" unicode="&#xf2;" horiz-adv-x="1110" 
d="M528 991q-131 0 -205.5 -111t-74.5 -309q0 -238 93 -388t239 -150q138 0 209 101.5t71 299.5q0 250 -93 403.5t-239 153.5zM68 506q0 241 139.5 392t361.5 151q214 0 342.5 -143t128.5 -382q0 -250 -134.5 -399.5t-360.5 -149.5q-211 0 -344 148t-133 383zM455 1354
l266 -234h-70l-295 137q-36 18 -53.5 38.5t-17.5 45.5q0 31 19.5 49.5t51.5 18.5q20 0 42 -12t57 -43z" />
    <glyph glyph-name="oacute" unicode="&#xf3;" horiz-adv-x="1110" 
d="M528 991q-131 0 -205.5 -111t-74.5 -309q0 -238 93 -388t239 -150q138 0 209 101.5t71 299.5q0 250 -93 403.5t-239 153.5zM68 506q0 241 139.5 392t361.5 151q214 0 342.5 -143t128.5 -382q0 -250 -134.5 -399.5t-360.5 -149.5q-211 0 -344 148t-133 383zM754 1257
l-295 -137h-70l266 234q41 34 61 44.5t38 10.5q32 0 51.5 -18.5t19.5 -49.5q0 -25 -17.5 -45.5t-53.5 -38.5z" />
    <glyph glyph-name="ocircumflex" unicode="&#xf4;" horiz-adv-x="1110" 
d="M528 991q-131 0 -205.5 -111t-74.5 -309q0 -238 93 -388t239 -150q138 0 209 101.5t71 299.5q0 250 -93 403.5t-239 153.5zM68 506q0 241 139.5 392t361.5 151q214 0 342.5 -143t128.5 -382q0 -250 -134.5 -399.5t-360.5 -149.5q-211 0 -344 148t-133 383zM618 1393
l226 -273h-58l-231 162l-231 -162h-58l226 273h126z" />
    <glyph glyph-name="otilde" unicode="&#xf5;" horiz-adv-x="1110" 
d="M528 991q-131 0 -205.5 -111t-74.5 -309q0 -238 93 -388t239 -150q138 0 209 101.5t71 299.5q0 250 -93 403.5t-239 153.5zM68 506q0 241 139.5 392t361.5 151q214 0 342.5 -143t128.5 -382q0 -250 -134.5 -399.5t-360.5 -149.5q-211 0 -344 148t-133 383zM788 1366h52
q-20 -100 -68 -149.5t-125 -49.5q-14 0 -32 2.5t-42 8.5l-108 28q-17 4 -31 6t-26 2q-31 0 -52.5 -21t-36.5 -67h-51q19 104 68 155.5t129 51.5q19 0 34 -2t29 -6l111 -29q24 -6 36.5 -8t20.5 -2q33 0 55 19t37 61z" />
    <glyph glyph-name="odieresis" unicode="&#xf6;" horiz-adv-x="1110" 
d="M528 991q-131 0 -205.5 -111t-74.5 -309q0 -238 93 -388t239 -150q138 0 209 101.5t71 299.5q0 250 -93 403.5t-239 153.5zM68 506q0 241 139.5 392t361.5 151q214 0 342.5 -143t128.5 -382q0 -250 -134.5 -399.5t-360.5 -149.5q-211 0 -344 148t-133 383zM725 1339
q38 0 66 -27.5t28 -66.5q0 -40 -27 -67t-67 -27q-39 0 -66.5 27.5t-27.5 66.5t28 66.5t66 27.5zM385 1339q38 0 66 -27.5t28 -66.5q0 -40 -27 -67t-67 -27q-39 0 -66.5 27.5t-27.5 66.5t28 66.5t66 27.5z" />
    <glyph glyph-name="divide" unicode="&#xf7;" horiz-adv-x="1706" 
d="M854 365q47 0 81 -34t34 -81t-33.5 -81t-81.5 -34t-81.5 33.5t-33.5 81.5t34 81.5t81 33.5zM254 670h1198v-117h-1198v117zM854 1085q48 0 81.5 -33.5t33.5 -80.5q0 -48 -33.5 -81.5t-81.5 -33.5q-49 0 -82 33.5t-33 81.5q0 47 34 80.5t81 33.5z" />
    <glyph glyph-name="oslash" unicode="&#xf8;" horiz-adv-x="1110" 
d="M793 995l118 217h84l-141 -256q94 -70 140 -178t46 -256q0 -249 -135 -398t-360 -149q-52 0 -104.5 12.5t-106.5 37.5l-123 -226h-78l143 260q-102 75 -155 186.5t-53 252.5q0 247 138.5 399t362.5 152q56 0 111.5 -13.5t112.5 -40.5zM729 883q-47 54 -98 81t-109 27
q-126 0 -198 -110t-72 -306q0 -114 22.5 -210t69.5 -181zM389 123q49 -46 98 -68t101 -22q131 0 201.5 103t70.5 296q0 118 -20.5 216t-61.5 171z" />
    <glyph glyph-name="ugrave" unicode="&#xf9;" horiz-adv-x="1114" 
d="M752 266v586q0 91 -29.5 121.5t-114.5 30.5h-10v22h328v-776q0 -94 19.5 -114.5t78.5 -20.5q17 0 27 0.5t18 0.5v-24q-88 -29 -167 -58.5t-148 -58.5l-2 215q-77 -106 -165 -160.5t-184 -54.5q-125 0 -179 86t-54 297v494q0 90 -29.5 121t-111.5 31v22h311v-707
q0 -122 31.5 -171.5t107.5 -49.5q77 0 149.5 45t123.5 123zM457 1354l266 -234h-70l-295 137q-36 18 -53.5 38.5t-17.5 45.5q0 31 19.5 49.5t51.5 18.5q20 0 42 -12t57 -43z" />
    <glyph glyph-name="uacute" unicode="&#xfa;" horiz-adv-x="1114" 
d="M752 266v586q0 91 -29.5 121.5t-114.5 30.5h-10v22h328v-776q0 -94 19.5 -114.5t78.5 -20.5q17 0 27 0.5t18 0.5v-24q-88 -29 -167 -58.5t-148 -58.5l-2 215q-77 -106 -165 -160.5t-184 -54.5q-125 0 -179 86t-54 297v494q0 90 -29.5 121t-111.5 31v22h311v-707
q0 -122 31.5 -171.5t107.5 -49.5q77 0 149.5 45t123.5 123zM756 1257l-295 -137h-70l266 234q41 34 61 44.5t38 10.5q32 0 51.5 -18.5t19.5 -49.5q0 -25 -17.5 -45.5t-53.5 -38.5z" />
    <glyph glyph-name="ucircumflex" unicode="&#xfb;" horiz-adv-x="1114" 
d="M752 266v586q0 91 -29.5 121.5t-114.5 30.5h-10v22h328v-776q0 -94 19.5 -114.5t78.5 -20.5q17 0 27 0.5t18 0.5v-24q-88 -29 -167 -58.5t-148 -58.5l-2 215q-77 -106 -165 -160.5t-184 -54.5q-125 0 -179 86t-54 297v494q0 90 -29.5 121t-111.5 31v22h311v-707
q0 -122 31.5 -171.5t107.5 -49.5q77 0 149.5 45t123.5 123zM620 1393l226 -273h-58l-231 162l-231 -162h-58l226 273h126z" />
    <glyph glyph-name="udieresis" unicode="&#xfc;" horiz-adv-x="1114" 
d="M752 266v586q0 91 -29.5 121.5t-114.5 30.5h-10v22h328v-776q0 -94 19.5 -114.5t78.5 -20.5q17 0 27 0.5t18 0.5v-24q-88 -29 -167 -58.5t-148 -58.5l-2 215q-77 -106 -165 -160.5t-184 -54.5q-125 0 -179 86t-54 297v494q0 90 -29.5 121t-111.5 31v22h311v-707
q0 -122 31.5 -171.5t107.5 -49.5q77 0 149.5 45t123.5 123zM727 1339q38 0 66 -27.5t28 -66.5q0 -40 -27 -67t-67 -27q-39 0 -66.5 27.5t-27.5 66.5t28 66.5t66 27.5zM387 1339q38 0 66 -27.5t28 -66.5q0 -40 -27 -67t-67 -27q-39 0 -66.5 27.5t-27.5 66.5t28 66.5t66 27.5z
" />
    <glyph glyph-name="yacute" unicode="&#xfd;" horiz-adv-x="932" 
d="M451 25l-318 841q-14 37 -31 66.5t-29 38.5q-14 11 -33.5 18t-45.5 11v24h405v-25q-55 0 -79.5 -17t-24.5 -54q0 -13 6.5 -37.5t17.5 -56.5l209 -596l215 571q13 33 20 66.5t7 54.5q0 36 -19.5 52.5t-60.5 16.5h-16v25h278v-25h-4q-36 0 -64.5 -32.5t-56.5 -106.5
l-360 -971q-80 -214 -154 -293t-180 -79q-62 0 -96.5 25.5t-34.5 70.5q0 38 25.5 61t68.5 23q25 0 70 -14.5t67 -14.5q59 0 100 55t95 230zM666 1257l-295 -137h-70l266 234q41 34 61 44.5t38 10.5q32 0 51.5 -18.5t19.5 -49.5q0 -25 -17.5 -45.5t-53.5 -38.5z" />
    <glyph glyph-name="thorn" unicode="&#xfe;" horiz-adv-x="1104" 
d="M348 748v-486q0 -104 58.5 -164.5t158.5 -60.5q142 0 217.5 114t75.5 326q0 209 -68.5 322.5t-193.5 113.5q-76 0 -138.5 -41.5t-109.5 -123.5zM348 72v-381q0 -89 29 -119.5t112 -32.5v-22h-458v22q89 4 118 33t29 129v1567q0 93 -20 114t-78 21q-17 0 -26.5 -0.5
t-18.5 -1.5v22q74 21 152 51.5t161 71.5v-715q86 115 162.5 165.5t161.5 50.5q159 0 259.5 -135.5t100.5 -354.5q0 -253 -128 -414t-324 -161q-69 0 -126 22t-106 68z" />
    <glyph glyph-name="ydieresis" unicode="&#xff;" horiz-adv-x="932" 
d="M451 25l-318 841q-14 37 -31 66.5t-29 38.5q-14 11 -33.5 18t-45.5 11v24h405v-25q-55 0 -79.5 -17t-24.5 -54q0 -13 6.5 -37.5t17.5 -56.5l209 -596l215 571q13 33 20 66.5t7 54.5q0 36 -19.5 52.5t-60.5 16.5h-16v25h278v-25h-4q-36 0 -64.5 -32.5t-56.5 -106.5
l-360 -971q-80 -214 -154 -293t-180 -79q-62 0 -96.5 25.5t-34.5 70.5q0 38 25.5 61t68.5 23q25 0 70 -14.5t67 -14.5q59 0 100 55t95 230zM637 1339q38 0 66 -27.5t28 -66.5q0 -40 -27 -67t-67 -27q-39 0 -66.5 27.5t-27.5 66.5t28 66.5t66 27.5zM297 1339q38 0 66 -27.5
t28 -66.5q0 -40 -27 -67t-67 -27q-39 0 -66.5 27.5t-27.5 66.5t28 66.5t66 27.5z" />
    <glyph glyph-name="Cacute" unicode="&#x106;" horiz-adv-x="1489" 
d="M1299 1546h26l41 -473h-20q-57 195 -179.5 298.5t-296.5 103.5q-254 0 -396 -182t-142 -509q0 -344 143 -532.5t402 -188.5q145 0 271 72.5t222 210.5l35 -22q-97 -172 -245.5 -262.5t-336.5 -90.5q-156 0 -290 56.5t-234 165.5q-102 109 -155.5 249t-53.5 297
q0 188 60 339.5t180 267.5q107 99 236 149.5t274 50.5q125 0 249 -48t136 -48q36 0 54 23.5t20 72.5zM1033 1763l-295 -137h-70l266 234q41 34 61 44.5t38 10.5q32 0 51.5 -18.5t19.5 -49.5q0 -25 -17.5 -45.5t-53.5 -38.5z" />
    <glyph glyph-name="cacute" unicode="&#x107;" horiz-adv-x="903" 
d="M834 379l18 -14q-47 -188 -146.5 -289t-236.5 -101q-172 0 -285.5 150.5t-113.5 384.5q0 243 123 393t319 150q130 0 216.5 -68t86.5 -166q0 -35 -22.5 -56.5t-59.5 -21.5q-42 0 -63.5 24.5t-36.5 96.5q-17 81 -49 109t-99 28q-119 0 -193.5 -116t-74.5 -305
q0 -201 87 -321t231 -120q93 0 167.5 60t131.5 182zM715 1257l-295 -137h-70l266 234q41 34 61 44.5t38 10.5q32 0 51.5 -18.5t19.5 -49.5q0 -25 -17.5 -45.5t-53.5 -38.5z" />
    <glyph glyph-name="Ccaron" unicode="&#x10c;" horiz-adv-x="1489" 
d="M1299 1546h26l41 -473h-20q-57 195 -179.5 298.5t-296.5 103.5q-254 0 -396 -182t-142 -509q0 -344 143 -532.5t402 -188.5q145 0 271 72.5t222 210.5l35 -22q-97 -172 -245.5 -262.5t-336.5 -90.5q-156 0 -290 56.5t-234 165.5q-102 109 -155.5 249t-53.5 297
q0 188 60 339.5t180 267.5q107 99 236 149.5t274 50.5q125 0 249 -48t136 -48q36 0 54 23.5t20 72.5zM545 1899h58l231 -162l231 162h58l-226 -271h-126z" />
    <glyph glyph-name="ccaron" unicode="&#x10d;" horiz-adv-x="903" 
d="M834 379l18 -14q-47 -188 -146.5 -289t-236.5 -101q-172 0 -285.5 150.5t-113.5 384.5q0 243 123 393t319 150q130 0 216.5 -68t86.5 -166q0 -35 -22.5 -56.5t-59.5 -21.5q-42 0 -63.5 24.5t-36.5 96.5q-17 81 -49 109t-99 28q-119 0 -193.5 -116t-74.5 -305
q0 -201 87 -321t231 -120q93 0 167.5 60t131.5 182zM227 1393h58l231 -162l231 162h58l-226 -271h-126z" />
    <glyph glyph-name="dcroat" unicode="&#x111;" horiz-adv-x="1108" 
d="M928 285v-4v-15q0 -102 24 -127.5t86 -25.5q10 0 15.5 0.5t9.5 0.5v-28q-77 -23 -153.5 -50.5t-153.5 -60.5v166q-63 -78 -143 -122t-158 -44q-172 0 -278.5 144.5t-106.5 376.5q0 228 130.5 389.5t307.5 161.5q66 0 128 -19.5t120 -58.5v198h-289v60h289v90
q0 49 -21 67.5t-73 18.5q-16 0 -27 -0.5t-22 -1.5l-1 22q77 24 156 55t160 68v-319h180v-60h-180v-882zM754 215v565q0 12 -2 24v3q0 81 -63 132.5t-163 51.5q-129 0 -213 -116.5t-84 -301.5q0 -211 86.5 -337.5t229.5 -126.5q73 0 132 30t77 76z" />
    <glyph glyph-name="Gbreve" unicode="&#x11e;" horiz-adv-x="1587" 
d="M1192 119v536q0 78 -33.5 110t-114.5 32h-18v28h522v-28q-82 -5 -113.5 -35.5t-31.5 -106.5v-520q-119 -82 -254.5 -124t-282.5 -42q-121 0 -226 25.5t-185 73.5q-173 103 -269 280t-96 391q0 188 60 339.5t180 267.5q107 99 239 149.5t285 50.5q129 0 254.5 -48
t136.5 -48q37 0 54.5 23t19.5 73h27l40 -473h-22q-64 201 -188 301.5t-308 100.5q-257 0 -396.5 -179.5t-139.5 -513.5q0 -349 149.5 -545t413.5 -196q83 0 158.5 20t138.5 58zM506 1888h51q16 -63 75 -94t163 -31t162 31t74 94h53q-20 -121 -94.5 -185t-194.5 -64
q-119 0 -193 64t-96 185z" />
    <glyph glyph-name="gbreve" unicode="&#x11f;" horiz-adv-x="1010" 
d="M309 23q-62 -37 -95.5 -87.5t-33.5 -109.5q0 -96 82.5 -146.5t239.5 -50.5q175 0 281 64t106 168q0 66 -39.5 98.5t-132.5 40.5q-16 1 -157 4.5t-251 18.5zM358 377q-57 -32 -83.5 -62t-26.5 -63q0 -83 308 -86h22t24 -1q173 -2 242 -42q55 -32 84.5 -88t29.5 -127
q0 -167 -152.5 -280t-385.5 -113q-168 0 -268.5 72t-100.5 192q0 70 47 130.5t152 125.5q-63 21 -93 56t-30 87q0 60 39.5 109t144.5 114q-92 60 -136 134t-44 170q0 143 104 243.5t252 100.5q64 0 118.5 -16.5t109.5 -51.5h239v-84h-155q25 -45 37 -92t12 -98
q0 -150 -99 -248.5t-249 -98.5q-32 0 -68 4.5t-74 12.5zM528 426q67 0 108.5 57t41.5 152q0 158 -63.5 257t-161.5 99q-65 0 -108.5 -59.5t-43.5 -153.5q0 -146 68 -249t159 -103zM217 1382h51q16 -63 75 -94t163 -31t162 31t74 94h53q-20 -121 -94.5 -185t-194.5 -64
q-119 0 -193 64t-96 185z" />
    <glyph glyph-name="Idotaccent" unicode="&#x130;" horiz-adv-x="725" 
d="M254 1298q0 113 -41.5 151t-167.5 40v29h635v-29q-126 -4 -167.5 -42t-41.5 -149v-1079q0 -113 41 -150.5t168 -40.5v-28h-635v28q125 4 167 42.5t42 148.5v1079zM364 1852q42 0 71 -29.5t29 -71.5q0 -38 -30 -68t-70 -30q-39 0 -68.5 29.5t-29.5 68.5q0 42 28.5 71.5
t69.5 29.5z" />
    <glyph glyph-name="dotlessi" unicode="&#x131;" horiz-adv-x="526" 
d="M356 176q0 -91 29 -121t111 -30v-25h-459v24q90 4 118.5 32t28.5 128v594q0 92 -17.5 112.5t-76.5 20.5q-18 0 -30 -0.5t-23 -0.5v24q83 25 162.5 55t156.5 66v-879z" />
    <glyph glyph-name="Lslash" unicode="&#x141;" horiz-adv-x="1290" 
d="M281 692l-254 -170v80l254 170v526q0 113 -41.5 151t-167.5 40v29h635l-1 -29q-124 -3 -166 -41.5t-42 -149.5v-415l340 227v-80l-340 -227v-600q0 -83 22.5 -104t110.5 -21h153q152 0 227 21t124 71q40 41 73.5 98t61.5 133h30l-122 -401h-1106v28q125 2 167 40.5
t42 150.5v473z" />
    <glyph glyph-name="lslash" unicode="&#x142;" horiz-adv-x="526" 
d="M530 903l-182 -121v-606q0 -90 29.5 -120.5t111.5 -30.5v-25h-458v24q88 3 117.5 31.5t29.5 128.5v527l-174 -117v72l174 116v486q0 91 -20 113t-80 22q-17 0 -27 -0.5t-20 -1.5v22q76 24 155 54.5t162 68.5v-692l182 121v-72z" />
    <glyph glyph-name="OE" unicode="&#x152;" horiz-adv-x="2028" 
d="M995 1518h846l14 -328h-22q-25 154 -83 207t-251 53h-297v-606h211q184 0 237 46.5t56 180.5h31v-524h-31q-6 137 -55.5 182t-237.5 45h-211v-571q0 -83 22.5 -104t110.5 -21h135q158 0 231 20.5t120 69.5q35 37 67.5 91t63.5 126h26l-114 -385h-883q-21 0 -108.5 -8
t-153.5 -8q-140 0 -261 53.5t-210 155.5q-96 109 -144.5 251t-48.5 312q0 163 46 300.5t137 248.5q88 108 214.5 164.5t280.5 56.5q60 0 147.5 -4t114.5 -4zM987 1178q0 146 -59.5 216t-182.5 70q-220 0 -342 -183.5t-122 -514.5q0 -343 118.5 -527t339.5 -184
q135 0 191.5 72t56.5 248v803z" />
    <glyph glyph-name="oe" unicode="&#x153;" horiz-adv-x="1665" 
d="M993 707h398q0 7 1 21t1 22q0 114 -47.5 172.5t-139.5 58.5q-90 0 -147.5 -74t-65.5 -200zM500 991q-114 0 -181 -112t-67 -306q0 -239 83 -389.5t212 -150.5q122 0 185 102t63 299q0 251 -82.5 404t-212.5 153zM905 825q70 111 158.5 167.5t196.5 56.5q147 0 229 -97
t82 -272v-29h-582q-1 -12 -3.5 -39.5t-2.5 -40.5q0 -205 78.5 -321.5t216.5 -116.5q90 0 163.5 51t139.5 160l16 -12q-50 -177 -143.5 -267t-226.5 -90q-103 0 -188.5 57t-141.5 163q-71 -113 -164.5 -166.5t-220.5 -53.5q-195 0 -318.5 147.5t-123.5 383.5q0 242 129 392.5
t336 150.5q122 0 215.5 -56.5t154.5 -167.5z" />
    <glyph glyph-name="Scedilla" unicode="&#x15e;" horiz-adv-x="1200" 
d="M176 -28l-29 -1v525h29q25 -206 132.5 -323.5t269.5 -117.5q121 0 200.5 74t79.5 186q0 89 -45.5 156.5t-175.5 157.5q-34 23 -104 67q-178 113 -257 189q-55 53 -85.5 125t-30.5 151q0 172 115 278.5t300 106.5q85 0 177.5 -34.5t109.5 -34.5q32 0 51.5 17.5t24.5 51.5
h29v-495h-29q-21 201 -120.5 310t-260.5 109q-100 0 -166.5 -64.5t-66.5 -162.5q0 -149 291 -330q43 -26 65 -41q216 -135 293.5 -241t77.5 -246q0 -186 -121.5 -300t-319.5 -114q-102 0 -221.5 44t-144.5 44q-31 0 -48 -22t-20 -65zM553 0h59v-102q11 2 23.5 3t34.5 1
q82 0 128 -39t46 -109q0 -75 -55 -117.5t-154 -42.5q-58 0 -126.5 18t-148.5 54l29 70q61 -33 116.5 -50.5t96.5 -17.5q59 0 88 21.5t29 64.5q0 37 -27.5 58.5t-75.5 21.5q-11 0 -26.5 -1.5t-36.5 -4.5v172z" />
    <glyph glyph-name="scedilla" unicode="&#x15f;" horiz-adv-x="834" 
d="M662 1024h24v-295h-24q-14 126 -75 193t-161 67q-81 0 -126.5 -41.5t-45.5 -113.5q0 -100 181 -218q7 -4 10 -6q183 -120 234.5 -194.5t51.5 -173.5q0 -114 -86 -190.5t-219 -76.5q-69 0 -148.5 24t-91.5 24q-18 -1 -29 -7t-16 -18h-24v328h24q27 -157 93.5 -225
t191.5 -68q82 0 128 40.5t46 112.5q0 109 -215 249l-15 10q-153 99 -200 166.5t-47 158.5q0 118 80.5 197.5t202.5 79.5q64 0 136.5 -27t82.5 -27q15 0 24 7.5t13 23.5zM371 0h59v-102q11 2 23.5 3t34.5 1q82 0 128 -39t46 -109q0 -75 -55 -117.5t-154 -42.5
q-58 0 -126.5 18t-148.5 54l29 70q61 -33 116.5 -50.5t96.5 -17.5q59 0 88 21.5t29 64.5q0 37 -27.5 58.5t-75.5 21.5q-11 0 -26.5 -1.5t-36.5 -4.5v172z" />
    <glyph glyph-name="Scaron" unicode="&#x160;" horiz-adv-x="1200" 
d="M176 -28l-29 -1v525h29q25 -206 132.5 -323.5t269.5 -117.5q121 0 200.5 74t79.5 186q0 89 -45.5 156.5t-175.5 157.5q-34 23 -104 67q-178 113 -257 189q-55 53 -85.5 125t-30.5 151q0 172 115 278.5t300 106.5q85 0 177.5 -34.5t109.5 -34.5q32 0 51.5 17.5t24.5 51.5
h29v-495h-29q-21 201 -120.5 310t-260.5 109q-100 0 -166.5 -64.5t-66.5 -162.5q0 -149 291 -330q43 -26 65 -41q216 -135 293.5 -241t77.5 -246q0 -186 -121.5 -300t-319.5 -114q-102 0 -221.5 44t-144.5 44q-31 0 -48 -22t-20 -65zM311 1899h58l231 -162l231 162h58
l-226 -271h-126z" />
    <glyph glyph-name="scaron" unicode="&#x161;" horiz-adv-x="834" 
d="M662 1024h24v-295h-24q-14 126 -75 193t-161 67q-81 0 -126.5 -41.5t-45.5 -113.5q0 -100 181 -218q7 -4 10 -6q183 -120 234.5 -194.5t51.5 -173.5q0 -114 -86 -190.5t-219 -76.5q-69 0 -148.5 24t-91.5 24q-18 -1 -29 -7t-16 -18h-24v328h24q27 -157 93.5 -225
t191.5 -68q82 0 128 40.5t46 112.5q0 109 -215 249l-15 10q-153 99 -200 166.5t-47 158.5q0 118 80.5 197.5t202.5 79.5q64 0 136.5 -27t82.5 -27q15 0 24 7.5t13 23.5zM129 1393h58l231 -162l231 162h58l-226 -271h-126z" />
    <glyph glyph-name="Ydieresis" unicode="&#x178;" horiz-adv-x="1366" 
d="M780 672v-453q0 -113 41 -150.5t168 -40.5v-28h-635v28q125 4 167 42.5t42 148.5v436l-387 674q-49 86 -103.5 123t-131.5 37v29h610v-29h-29q-72 0 -104.5 -18t-32.5 -58q0 -17 8 -38t33 -64l311 -543l316 485q33 52 49 88.5t16 63.5q0 41 -32 62.5t-95 21.5h-18v29h452
v-29h-4q-65 0 -124.5 -47t-125.5 -152zM854 1845q38 0 66 -27.5t28 -66.5q0 -40 -27 -67t-67 -27q-39 0 -66.5 27.5t-27.5 66.5t28 66.5t66 27.5zM514 1845q38 0 66 -27.5t28 -66.5q0 -40 -27 -67t-67 -27q-39 0 -66.5 27.5t-27.5 66.5t28 66.5t66 27.5z" />
    <glyph glyph-name="Zcaron" unicode="&#x17d;" horiz-adv-x="1356" 
d="M90 0l862 1430h-481q-128 0 -174 -52.5t-78 -228.5h-29l50 369h1013l-862 -1436h465q210 0 289 61t125 232h28l-92 -375h-1116zM389 1899h58l231 -162l231 162h58l-226 -271h-126z" />
    <glyph glyph-name="zcaron" unicode="&#x17e;" horiz-adv-x="930" 
d="M244 57h307q164 0 211.5 46t58.5 186h25l-17 -289h-800l602 967h-279q-123 0 -165.5 -40.5t-47.5 -150.5h-24l6 248h733zM176 1393h58l231 -162l231 162h58l-226 -271h-126z" />
    <glyph glyph-name="florin" unicode="&#x192;" horiz-adv-x="1034" 
d="M223 887l8 57h215q36 261 135 412t232 151q70 0 109 -33t39 -92q0 -40 -21 -63t-57 -23q-31 0 -51.5 19t-20.5 47q0 24 11.5 49t11.5 27q0 12 -6.5 17t-20.5 5q-84 0 -137.5 -131t-73.5 -385h264v-57h-268q-54 -740 -150 -1009t-284 -269q-62 0 -98.5 35t-36.5 94
q0 37 22.5 61.5t56.5 24.5q30 0 50 -19.5t20 -48.5t-15.5 -53.5t-15.5 -26.5q0 -9 9 -13.5t26 -4.5q174 0 247 995q11 152 17 234h-217z" />
    <glyph glyph-name="circumflex" unicode="&#x2c6;" 
d="M575 1393l226 -273h-58l-231 162l-231 -162h-58l226 273h126z" />
    <glyph glyph-name="caron" unicode="&#x2c7;" 
d="M223 1393h58l231 -162l231 162h58l-226 -271h-126z" />
    <glyph glyph-name="breve" unicode="&#x2d8;" 
d="M223 1382h51q16 -63 75 -94t163 -31t162 31t74 94h53q-20 -121 -94.5 -185t-194.5 -64q-119 0 -193 64t-96 185z" />
    <glyph glyph-name="dotaccent" unicode="&#x2d9;" 
d="M514 1346q42 0 71 -29.5t29 -71.5q0 -38 -30 -68t-70 -30q-39 0 -68.5 29.5t-29.5 68.5q0 42 28.5 71.5t69.5 29.5z" />
    <glyph glyph-name="ring" unicode="&#x2da;" 
d="M512 1415q-48 0 -79.5 -31.5t-31.5 -78.5q0 -48 32 -80.5t79 -32.5q48 0 80.5 32.5t32.5 80.5q0 47 -32.5 78.5t-80.5 31.5zM512 1497q81 0 138 -56t57 -136q0 -82 -57 -138.5t-138 -56.5t-137 56.5t-56 138.5q0 81 56 136.5t137 55.5z" />
    <glyph glyph-name="ogonek" unicode="&#x2db;" 
d="M569 31h54q-90 -69 -131 -128.5t-41 -119.5q0 -47 26 -74.5t70 -27.5q34 0 60.5 16t51.5 53l29 -20q-38 -68 -91.5 -104t-115.5 -36q-68 0 -108.5 37.5t-40.5 98.5q0 82 59.5 158.5t177.5 146.5z" />
    <glyph glyph-name="tilde" unicode="&#x2dc;" 
d="M745 1366h52q-20 -100 -68 -149.5t-125 -49.5q-14 0 -32 2.5t-42 8.5l-108 28q-17 4 -31 6t-26 2q-31 0 -52.5 -21t-36.5 -67h-51q19 104 68 155.5t129 51.5q19 0 34 -2t29 -6l111 -29q24 -6 36.5 -8t20.5 -2q33 0 55 19t37 61z" />
    <glyph glyph-name="hungarumlaut" unicode="&#x2dd;" 
d="M817 1264l-176 -144h-59l120 205l1 1q47 77 92 77q31 0 50 -18t19 -48q0 -17 -11.5 -35.5t-35.5 -37.5zM551 1266l-150 -146h-59l92 197q25 51 45.5 69.5t48.5 18.5t46 -19t18 -47q0 -16 -10.5 -34.5t-30.5 -38.5z" />
    <glyph glyph-name="Omega" unicode="&#x3a9;" horiz-adv-x="1567" 
d="M1100 188v-26h313l66 203h61l-108 -365h-500q134 233 202 451t68 413q0 271 -107.5 416t-308.5 145t-309 -145t-108 -416q0 -195 68 -411t204 -453h-500l-110 365h61l68 -203h311v26q-165 203 -234 361.5t-69 327.5q0 272 174.5 446t443.5 174t443 -174.5t174 -445.5
q0 -169 -69 -327.5t-234 -361.5z" />
    <glyph glyph-name="pi" unicode="&#x3c0;" horiz-adv-x="1354" 
d="M1329 885l-35 -162h-329q-34 -179 -54 -452q-23 -314 -120 -314q-38 0 -58 24.5t-20 69.5q0 58 77 280.5t117 391.5h-375q-33 -177 -53 -448q-25 -318 -123 -318q-37 0 -57 25t-20 71q0 56 77.5 277t118.5 393h-133q-136 0 -180 -43.5t-72 -171.5h-59q37 207 117.5 292
t238.5 85h942z" />
    <glyph glyph-name="endash" unicode="&#x2013;" 
d="M0 471v104h979v-104h-979z" />
    <glyph glyph-name="emdash" unicode="&#x2014;" horiz-adv-x="2048" 
d="M0 471v104h2048v-104h-2048z" />
    <glyph glyph-name="quoteleft" unicode="&#x2018;" horiz-adv-x="516" 
d="M377 1544v-33q-91 -43 -145 -120t-54 -158q0 -24 9.5 -37.5t25.5 -13.5q7 0 33.5 8t46.5 8q44 0 72 -31t28 -82q0 -46 -31 -75t-81 -29q-74 0 -116 57.5t-42 157.5q0 117 71 215.5t183 132.5z" />
    <glyph glyph-name="quoteright" unicode="&#x2019;" horiz-adv-x="516" 
d="M139 983v35q90 43 144.5 119.5t54.5 156.5q0 24 -8.5 38t-22.5 14q-8 0 -36.5 -8.5t-47.5 -8.5q-43 0 -71.5 31t-28.5 78q0 50 30.5 79t82.5 29q73 0 115 -57.5t42 -157.5q0 -117 -71 -215t-183 -133z" />
    <glyph glyph-name="quotesinglbase" unicode="&#x201a;" horiz-adv-x="516" 
d="M139 -367v35q90 44 144.5 120.5t54.5 156.5q0 23 -9.5 37t-25.5 14q-7 0 -33.5 -7t-46.5 -7q-44 0 -72 29.5t-28 76.5q0 50 30.5 79.5t82.5 29.5q73 0 115 -58t42 -159q0 -117 -71 -214.5t-183 -132.5z" />
    <glyph glyph-name="quotedblleft" unicode="&#x201c;" horiz-adv-x="911" 
d="M770 1544v-33q-90 -43 -144.5 -120t-54.5 -158q0 -24 9.5 -37.5t25.5 -13.5q7 0 34 8t46 8q45 0 72.5 -31t27.5 -82q0 -46 -30 -75t-80 -29q-74 0 -117 57.5t-43 157.5q0 117 71 215.5t183 132.5zM377 1544v-33q-91 -43 -145 -120t-54 -158q0 -24 9.5 -37.5t25.5 -13.5
q7 0 33.5 8t46.5 8q44 0 72 -31t28 -82q0 -46 -31 -75t-81 -29q-74 0 -116 57.5t-42 157.5q0 117 71 215.5t183 132.5z" />
    <glyph glyph-name="quotedblright" unicode="&#x201d;" horiz-adv-x="911" 
d="M532 983v35q90 43 144.5 119.5t54.5 156.5q0 24 -8 38t-23 14q-8 0 -35 -8.5t-47 -8.5q-43 0 -72.5 31t-29.5 78q0 50 30.5 79t82.5 29q73 0 115 -57.5t42 -157.5q0 -117 -71 -215t-183 -133zM139 983v35q90 43 144.5 119.5t54.5 156.5q0 24 -8.5 38t-22.5 14
q-8 0 -36.5 -8.5t-47.5 -8.5q-43 0 -71.5 31t-28.5 78q0 50 30.5 79t82.5 29q73 0 115 -57.5t42 -157.5q0 -117 -71 -215t-183 -133z" />
    <glyph glyph-name="quotedblbase" unicode="&#x201e;" horiz-adv-x="911" 
d="M532 -367v35q90 44 144.5 120.5t54.5 156.5q0 24 -8.5 37.5t-24.5 13.5q-7 0 -33.5 -7t-46.5 -7q-44 0 -73 30t-29 76q0 50 30.5 79.5t82.5 29.5q73 0 115 -58t42 -159q0 -117 -71 -214.5t-183 -132.5zM139 -367v35q90 44 144.5 120.5t54.5 156.5q0 23 -9.5 37t-25.5 14
q-7 0 -33.5 -7t-46.5 -7q-44 0 -72 29.5t-28 76.5q0 50 30.5 79.5t82.5 29.5q73 0 115 -58t42 -159q0 -117 -71 -214.5t-183 -132.5z" />
    <glyph glyph-name="dagger" unicode="&#x2020;" horiz-adv-x="1034" 
d="M498 -154v48q0 305 -21 496t-65 288q45 63 65.5 138.5t20.5 195.5v49h-19q-61 0 -144 -33t-114 -33q-41 0 -67.5 24.5t-26.5 61.5q0 38 27 63t67 25q31 0 114 -32.5t144 -32.5h19v39q0 88 -36 187.5t-36 117.5q0 46 24 72t66 26t66 -26t24 -72q0 -18 -35.5 -116.5
t-35.5 -188.5v-39h18q60 0 144.5 32.5t115.5 32.5q39 0 65.5 -25t26.5 -63q0 -37 -26 -61.5t-66 -24.5q-31 0 -115 33t-145 33h-18v-49q0 -120 20 -195.5t66 -138.5q-44 -95 -65 -286.5t-21 -497.5v-48h-37z" />
    <glyph glyph-name="daggerdbl" unicode="&#x2021;" horiz-adv-x="1034" 
d="M621 696q-46 -61 -66 -135t-20 -192v-47h18q60 0 144.5 32.5t115.5 32.5q41 0 66.5 -24t25.5 -62t-27 -63t-69 -25q-28 0 -111 33t-145 33h-18v-39q0 -88 35.5 -184t35.5 -113q0 -45 -24.5 -72t-65.5 -27t-65.5 27t-24.5 72q0 17 36 113t36 184v39h-19q-61 0 -144 -33
t-114 -33q-40 0 -67 25t-27 63q0 37 26.5 61.5t67.5 24.5q31 0 114.5 -32.5t143.5 -32.5h19v47q0 119 -20.5 193t-65.5 134q45 62 65.5 136t20.5 192v45h-21q-60 0 -143 -32.5t-113 -32.5q-40 0 -67 25t-27 63q0 36 27 61t67 25q31 0 114.5 -33t143.5 -33h19v39
q0 88 -36 185t-36 114q0 44 24.5 70t65.5 26q42 0 66 -26t24 -70q0 -17 -35.5 -113.5t-35.5 -185.5v-39h18q60 0 144.5 33t115.5 33q40 0 66 -24.5t26 -61.5q0 -38 -26 -63t-66 -25q-30 0 -114 32.5t-144 32.5h-20v-45q0 -118 20 -192t66 -136z" />
    <glyph glyph-name="bullet" unicode="&#x2022;" horiz-adv-x="1208" 
d="M307 762q0 123 87 209t210 86q122 0 208.5 -86.5t86.5 -208.5t-87.5 -209.5t-209.5 -87.5q-123 0 -209 87t-86 210z" />
    <glyph glyph-name="ellipsis" unicode="&#x2026;" horiz-adv-x="2048" 
d="M451 88q0 -49 -30.5 -81t-78.5 -32q-47 0 -76.5 31.5t-29.5 81.5t29.5 81.5t76.5 31.5q48 0 78.5 -32t30.5 -81zM1133 88q0 -49 -30.5 -81t-78.5 -32q-47 0 -76.5 31.5t-29.5 81.5t29.5 81.5t76.5 31.5q48 0 78.5 -32t30.5 -81zM1817 88q0 -49 -30.5 -81t-78.5 -32
q-47 0 -76.5 31.5t-29.5 81.5t29.5 81.5t76.5 31.5q48 0 78.5 -32t30.5 -81z" />
    <glyph glyph-name="perthousand" unicode="&#x2030;" horiz-adv-x="2238" 
d="M2058 493q0 68 -33 108t-90 40q-47 0 -97.5 -37.5t-90.5 -103.5q-49 -80 -77 -165.5t-28 -154.5q0 -71 31.5 -108t91.5 -37q48 0 93 29.5t88 89.5q47 65 79 162t33 177zM1714 -27q-103 0 -161 62.5t-58 173.5q0 86 30 176.5t85 169.5q55 80 128 124t150 44
q96 0 155.5 -62.5t59.5 -164.5q0 -79 -26.5 -168t-75.5 -170q-54 -91 -126.5 -138t-160.5 -47zM1044 -27q-103 0 -161 62.5t-58 173.5q0 86 30 176.5t85 169.5t129 123.5t152 44.5q95 0 154 -62.5t59 -164.5q0 -81 -26.5 -170t-74.5 -168q-53 -91 -127 -138t-162 -47z
M1389 494q0 68 -32.5 107.5t-88.5 39.5q-48 0 -98 -37.5t-91 -103.5q-49 -81 -77.5 -167t-28.5 -153q0 -71 32 -108t93 -37q47 0 91 29t87 90q49 66 81 163t32 177zM563 1356h-8q-47 0 -95.5 -37t-90.5 -105q-50 -79 -78.5 -164.5t-28.5 -152.5q0 -72 32.5 -109.5
t92.5 -37.5q47 0 91 29t87 89q49 67 81 165t32 177q0 14 -2.5 30.5t-7.5 32.5q-35 18 -61.5 38.5t-43.5 44.5zM1200 1489h84l-940 -1579h-84l838 1405q-50 -40 -110.5 -60t-133.5 -20q-30 0 -62 5.5t-73 18.5q2 -19 3 -30t1 -21q0 -57 -16.5 -124.5t-49.5 -141.5
q-55 -124 -137.5 -189t-185.5 -65q-104 0 -161.5 62t-57.5 174q0 86 30 177.5t84 170.5q55 78 129 122t152 44q59 0 105 -27t83 -84q23 -22 68 -34.5t104 -12.5q100 0 186.5 54.5t143.5 154.5z" />
    <glyph glyph-name="guilsinglleft" unicode="&#x2039;" horiz-adv-x="578" 
d="M84 516q142 113 274.5 248t149.5 135q8 0 11 -5t3 -17q0 -39 -69.5 -140t-182.5 -221q113 -119 182.5 -220.5t69.5 -139.5q0 -13 -3.5 -19t-10.5 -6q-17 0 -149.5 135.5t-274.5 249.5z" />
    <glyph glyph-name="guilsinglright" unicode="&#x203a;" horiz-adv-x="578" 
d="M506 516q-143 -114 -275 -249.5t-149 -135.5q-7 0 -10.5 6t-3.5 17q0 40 68 138t186 224q-116 124 -185 223.5t-69 139.5q0 10 3.5 15t10.5 5q17 0 149 -135t275 -248z" />
    <glyph glyph-name="franc" unicode="&#x20a3;" horiz-adv-x="1929" 
d="M1167 1518l15 -328h-23q-25 154 -83 207t-251 53h-352v-612h213q184 0 237 46.5t56 180.5h31v-524h-31q-5 135 -55 181t-238 46h-213v-549q0 -115 44 -152.5t181 -37.5v-29h-653v28q125 2 167 40.5t42 150.5v1079q0 111 -41.5 149t-167.5 42v29h1122zM1564 864
q72 94 134 139.5t118 45.5q52 0 84.5 -29.5t32.5 -75.5q0 -45 -23.5 -70.5t-64.5 -25.5q-31 0 -73 28.5t-58 28.5q-33 0 -68.5 -30.5t-81.5 -98.5v-600q0 -92 30.5 -121.5t121.5 -29.5h25v-25h-494v24q90 4 118.5 32t28.5 128v594q0 91 -19.5 112t-78.5 21q-17 0 -28 -0.5
t-21 -0.5v24q82 25 162 55.5t155 65.5v-191z" />
    <glyph glyph-name="trademark" unicode="&#x2122;" horiz-adv-x="1683" 
d="M788 1438h183l141 -400l148 400h174v-25l-30 -2q-22 -2 -34 -15.5t-12 -37.5v-373q0 -24 12 -37.5t34 -15.5l30 -2v-27h-236v27l31 2q21 2 33 16t12 37v395l-178 -479h-15l-174 479v-395q0 -23 12.5 -37t34.5 -16l31 -2v-27h-197v27l34 2q21 2 32.5 16t11.5 37v371
q0 23 -12.5 37t-34.5 16l-31 2v27zM256 1438h440l11 -178h-25q-8 79 -40.5 115t-96.5 36h-21v-426q0 -23 12 -37t33 -16l31 -2v-27h-248v27l31 2q21 1 33 15.5t12 37.5v426h-20q-64 0 -97 -36t-41 -115h-26z" />
    <glyph glyph-name="partialdiff" unicode="&#x2202;" horiz-adv-x="1044" 
d="M754 604q13 81 19.5 161.5t6.5 158.5q0 140 -39.5 216.5t-111.5 76.5q-53 0 -117 -63.5t-109 -63.5q-29 0 -51 21.5t-22 51.5q0 59 68 105.5t163 46.5q171 0 273 -152.5t102 -412.5q0 -335 -139 -555t-344 -220q-147 0 -241.5 106.5t-94.5 272.5q0 189 108.5 316
t266.5 127q99 0 162.5 -47t99.5 -146zM709 483q0 117 -45 180.5t-127 63.5q-113 0 -184.5 -127.5t-71.5 -333.5q0 -117 44 -178t128 -61q111 0 183.5 128t72.5 328z" />
    <glyph glyph-name="Delta" unicode="&#x2206;" horiz-adv-x="1208" 
d="M555 1212l-389 -1042h768zM596 1497h29l555 -1497h-1151z" />
    <glyph glyph-name="product" unicode="&#x220f;" horiz-adv-x="1595" 
d="M57 1473h1479v-70h-186v-1727h186v-69h-555v69h197v1727h-762v-1727h196v-69h-555v69h187v1727h-187v70z" />
    <glyph glyph-name="summation" unicode="&#x2211;" horiz-adv-x="1434" 
d="M12 1473h1135l98 -340h-74l-67 219q-8 27 -32 39t-73 12h-741l864 -850v-37l-858 -756h893q60 0 77.5 13t29.5 51l71 229h74l-135 -446h-1260v28l959 838l-961 950v50z" />
    <glyph glyph-name="minus" unicode="&#x2212;" horiz-adv-x="1706" 
d="M254 670h1198v-119h-1198v119z" />
    <glyph glyph-name="fraction" unicode="&#x2215;" horiz-adv-x="342" 
d="M-248 -29h-94l928 1536h96z" />
    <glyph glyph-name="periodcentered" unicode="&#x2219;" horiz-adv-x="516" 
d="M365 743q0 -49 -30 -80.5t-77 -31.5q-48 0 -78 31t-30 81t30.5 81.5t77.5 31.5t77 -31.5t30 -81.5z" />
    <glyph glyph-name="radical" unicode="&#x221a;" horiz-adv-x="1288" 
d="M1106 1647h182v-82h-119l-594 -1606h-53l-323 893l-119 -43l-23 68l262 92l265 -729z" />
    <glyph glyph-name="infinity" unicode="&#x221e;" horiz-adv-x="1706" 
d="M905 559q51 -95 119 -141.5t156 -46.5q102 0 168.5 71t66.5 181q0 108 -61 179.5t-152 71.5q-85 0 -153.5 -72.5t-143.5 -242.5zM803 666q-51 95 -119 142.5t-154 47.5q-105 0 -171 -71t-66 -183q0 -108 61 -179t152 -71q85 0 152 69t145 245zM866 494
q-71 -138 -148 -201.5t-173 -63.5q-134 0 -226 109t-92 272q0 172 82.5 277.5t214.5 105.5q97 0 172 -63t144 -203q67 138 146 204t175 66q134 0 226 -108.5t92 -272.5q0 -171 -82 -277t-213 -106q-96 0 -169 60t-149 201z" />
    <glyph glyph-name="integral" unicode="&#x222b;" horiz-adv-x="1020" 
d="M301 -268q103 0 116 664q3 141 5 216q12 503 102 719.5t281 216.5q76 0 122 -39t46 -104q0 -48 -31 -77.5t-82 -29.5q-53 0 -85 35t-32 92q0 8 -6 15.5t-14 7.5q-105 0 -119 -634q-3 -157 -6 -245q-10 -308 -31.5 -461t-62.5 -247q-49 -114 -123 -173t-168 -59
q-73 0 -119.5 38t-46.5 97q0 53 31.5 84t83.5 31q47 0 79.5 -29t32.5 -67q0 -24 7.5 -37.5t19.5 -13.5z" />
    <glyph glyph-name="approxequal" unicode="&#x2248;" horiz-adv-x="1706" 
d="M1530 584v-131q-107 -75 -202 -110.5t-187 -35.5q-98 0 -288 69.5t-290 69.5q-82 0 -169.5 -35.5t-215.5 -123.5v131q108 74 203.5 110.5t183.5 36.5q111 0 301.5 -69.5t276.5 -69.5q85 0 173.5 35.5t213.5 122.5zM1530 934v-131q-104 -73 -200 -108.5t-187 -35.5
q-100 0 -290 69t-290 69q-83 0 -171.5 -36t-213.5 -122v131q106 73 202 109t185 36q111 0 300.5 -68.5t277.5 -68.5q87 0 175 35t212 121z" />
    <glyph glyph-name="notequal" unicode="&#x2260;" horiz-adv-x="1706" 
d="M1210 1180l88 -70l-196 -250h350v-115h-424l-211 -270h635v-115h-709l-251 -319l-89 70l197 249h-346v115h420l211 270h-631v115h704z" />
    <glyph glyph-name="lessequal" unicode="&#x2264;" horiz-adv-x="1706" 
d="M262 150h1182v-117h-1182v117zM1444 1192v-125l-977 -324l977 -323v-125l-1182 399v101z" />
    <glyph glyph-name="greaterequal" unicode="&#x2265;" horiz-adv-x="1706" 
d="M262 150h1182v-117h-1182v117zM262 1192l1182 -397v-101l-1182 -399v125l979 323l-979 324v125z" />
    <glyph glyph-name="lozenge" unicode="&#x25ca;" horiz-adv-x="1012" 
d="M506 1409l-385 -817l385 -825l385 825zM506 1653l500 -1061l-500 -1069l-500 1069z" />
    <glyph glyph-name="apple" unicode="&#xf000;" horiz-adv-x="1618" 
d="M836 1216q-1 6 -1.5 14t-0.5 23q0 124 95 229.5t236 131.5q1 -10 1.5 -23t0.5 -39q0 -131 -103.5 -234.5t-203.5 -103.5h-8q-3 0 -7.5 1t-8.5 1zM1505 403q-114 -247 -205 -342.5t-204 -95.5q-50 0 -131.5 33t-122.5 33q-45 0 -131 -33t-127 -33q-64 0 -128.5 44
t-129.5 132q-102 140 -157.5 295.5t-55.5 300.5q0 219 125 356.5t323 137.5q68 0 155 -34t124 -34q34 0 121.5 35t152.5 35q110 0 198 -40t161 -124q-102 -65 -151.5 -145.5t-49.5 -182.5q0 -113 60 -200t173 -138z" />
    <glyph glyph-name="fi" unicode="&#xf001;" horiz-adv-x="1106" 
d="M373 1024h243q65 0 145.5 7.5t172.5 21.5v-877q0 -90 29.5 -120.5t111.5 -30.5v-25h-459l1 25q89 3 118 31t29 128v621q0 110 -21.5 136t-126.5 26h-243v-791q0 -92 27 -121t104 -31v-24h-451v24q90 4 119 32t29 128v783h-144v57h144v29q0 222 112 346.5t314 124.5
q120 0 190 -41.5t70 -110.5q0 -30 -19 -48.5t-49 -18.5q-44 0 -93 66q-11 16 -17 24q-34 43 -60 57t-63 14q-98 0 -155.5 -82t-57.5 -223v-137z" />
    <glyph glyph-name="fl" unicode="&#xf002;" horiz-adv-x="1106" 
d="M934 1546v-1370q0 -90 29.5 -120.5t111.5 -30.5v-25h-459l1 25q89 3 118 31t29 128v783h-391v-791q0 -92 27 -121t104 -31v-24h-451v24q90 4 119 32t29 128v783h-144v57h144v14q0 233 92 361.5t258 128.5q50 0 98.5 -12t93.5 -35zM764 1350q-13 -9 -25.5 -13t-23.5 -4
q-26 0 -46.5 11t-49.5 44q-5 6 -15 19q-50 63 -96 63q-68 0 -101.5 -66.5t-33.5 -203.5v-176h391v326z" />
    </font>
</defs>
</svg>
