<?xml version="1.0" standalone="no"?>
<!DOCTYPE svg PUBLIC "-//W3C//DTD SVG 1.1//EN" "http://www.w3.org/Graphics/SVG/1.1/DTD/svg11.dtd" >
<svg xmlns="http://www.w3.org/2000/svg" xmlns:xlink="http://www.w3.org/1999/xlink" version="1.1">
<metadata>
Created by FontForge 20170731 at Sun Mar 11 19:30:02 2012
 By Aleksey,,,
</metadata>
<defs>
<font id="KewlScriptW00-Regular" horiz-adv-x="395" >
  <font-face 
    font-family="KewlScriptW00-Regular"
    font-weight="400"
    font-stretch="normal"
    units-per-em="1000"
    panose-1="2 0 5 5 0 0 0 2 0 2"
    ascent="595"
    descent="-405"
    x-height="271"
    cap-height="768"
    bbox="-318 -700 2154 1014"
    underline-thickness="50"
    underline-position="-150"
    unicode-range="U+000D-FB02"
  />
<missing-glyph horiz-adv-x="270" 
 />
    <glyph glyph-name=".notdef" horiz-adv-x="270" 
 />
    <glyph glyph-name="glyph1" horiz-adv-x="0" 
 />
    <glyph glyph-name="uni000D" unicode="&#xd;" horiz-adv-x="270" 
 />
    <glyph glyph-name="space" unicode=" " horiz-adv-x="270" 
 />
    <glyph glyph-name="space" unicode="&#xa0;" horiz-adv-x="270" 
 />
    <glyph glyph-name="exclam" unicode="!" horiz-adv-x="302" 
d="M216 792q-12 -41 -21 -99.5t-16 -124.5t-12.5 -134t-9 -128.5t-5.5 -108.5t-3 -73q0 -4 -6 -7t-14 -3q-6 0 -11.5 2.5t-5.5 10.5q-1 11 -4 41.5t-7.5 74t-10 97.5t-10 113t-7.5 119.5t-3 117.5q0 19 6 38t18 35t31 26t46 10q10 0 21.5 -1.5t23.5 -5.5zM185 31
q0 -26 -19.5 -40t-42.5 -14q-20 0 -35 10.5t-15 33.5q0 26 19.5 40t42.5 14q20 0 35 -10.5t15 -33.5z" />
    <glyph glyph-name="quotedbl" unicode="&#x22;" horiz-adv-x="423" 
d="M244 812q16 17 33 25t33 8q23 0 39 -18.5t16 -59.5q0 -26 -6.5 -54.5t-17.5 -52t-26.5 -38.5t-34.5 -15q-12 0 -25 7q2 14 3.5 31t1.5 38q0 26 -3.5 58t-12.5 71zM89 812q16 17 33 25t33 8q23 0 39 -18.5t16 -59.5q0 -26 -6.5 -54.5t-17.5 -52t-26.5 -38.5t-34.5 -15
q-12 0 -25 7q2 14 3.5 31t1.5 38q0 26 -3.5 58t-12.5 71z" />
    <glyph glyph-name="numbersign" unicode="#" horiz-adv-x="502" 
d="M286 214h-83v-73q0 -13 -8.5 -23.5t-15.5 -10.5t-7 11v96h-84q-13 0 -22.5 4.5t-9.5 12.5t9 14h107v102h-84q-13 0 -22.5 4.5t-9.5 12.5t9 14h107v98q0 13 8.5 23.5t15.5 10.5t7 -11v-121h83v98q0 13 8.5 23.5t15.5 10.5t7 -11v-121h86q13 0 22.5 -4.5t9.5 -12.5t-9 -14
h-109v-102h86q13 0 22.5 -4.5t9.5 -12.5t-9 -14h-109v-73q0 -13 -8.5 -23.5t-15.5 -10.5t-7 11v96zM203 245h83v102h-83v-102z" />
    <glyph glyph-name="dollar" unicode="$" horiz-adv-x="592" 
d="M228 -69q-23 -3 -44 -3q-45 0 -86.5 12t-73.5 36t-51 61.5t-19 88.5q0 33 12 65t34.5 57t55.5 40t76 15q44 0 65.5 -16t21.5 -39q0 -17 -13 -34t-39 -31q-17 24 -36.5 34.5t-39.5 10.5q-52 0 -74.5 -25.5t-22.5 -61.5q0 -43 13.5 -75.5t36.5 -54t53 -32.5t63 -11t68 11
v361q-32 33 -64.5 66.5t-59 68t-43 72t-16.5 78.5t15.5 72.5t41 53.5t58.5 34.5t68 15.5v63q0 8 5.5 13t12 8t12 4t6.5 1v-88q48 -3 84 -19t59 -40t34.5 -52t11.5 -54q0 -17 -6.5 -33t-17 -28t-25 -19t-30.5 -7q-24 0 -46 16q29 45 29 85q0 42 -27.5 70t-65.5 39v-301
q41 -29 82 -59t74 -63.5t53.5 -71t20.5 -79.5q0 -51 -19 -92.5t-51 -73t-73.5 -52.5t-86.5 -31v-59q-10 -5 -18 -5t-13 4.5t-5 14.5v39zM90 646q0 -22 11 -42.5t29.5 -40.5t43.5 -39.5t54 -39.5v283q-5 1 -13 1q-24 0 -46.5 -7t-40 -22t-28 -38t-10.5 -55zM350 116
q0 52 -25 97t-61 87v-306q37 19 61.5 50t24.5 72z" />
    <glyph glyph-name="percent" unicode="%" horiz-adv-x="1025" 
d="M869 828q4 -2 8 -6q3 -3 6 -7t3 -10q0 -10 -11 -24l-718 -905q-6 -8 -21 -8q-7 0 -13 2.5t-9 8.5zM810 394q18 0 38 -5q-8 19 -26.5 30.5t-44.5 11.5q-37 0 -64.5 -17t-45.5 -45t-27 -64t-9 -73q0 -39 9.5 -76t28.5 -66t47 -47t66 -18q36 0 64 17t47 44t29 61t10 69
q0 38 -12 72t-38 56q-11 -21 -39 -31q11 22 11 46v3q-25 10 -51 10q-19 0 -36 -3.5t-30.5 -8t-23 -9t-12.5 -6.5l-1 -1q-5 0 -5 6q0 5 3 11t6 8q29 15 56 20t50 5zM315 712q18 0 38 -5q-8 19 -26.5 30.5t-44.5 11.5q-37 0 -64.5 -17t-45.5 -45t-27 -64t-9 -73q0 -39 9.5 -76
t28.5 -66t47 -47t66 -18q36 0 64 17t47 44t29 61t10 69q0 38 -12 72t-38 56q-11 -21 -39 -31q11 22 11 46v3q-25 10 -51 10q-19 0 -36 -3.5t-30.5 -8t-23 -9t-12.5 -6.5l-1 -1q-5 0 -5 6q0 5 3 11t6 8q29 15 56 20t50 5zM891 371q38 -25 56.5 -70.5t18.5 -97.5
q0 -47 -14.5 -93.5t-43 -84t-71 -61t-97.5 -23.5q-52 0 -89 17t-61 46.5t-35 67.5t-11 80q0 54 17 108.5t48.5 98.5t75.5 71.5t98 27.5q25 0 45 -7.5t34 -19.5t21.5 -27.5t7.5 -30.5v-2zM396 689q38 -25 56.5 -70.5t18.5 -97.5q0 -47 -14.5 -93.5t-43 -84t-71 -61
t-97.5 -23.5q-52 0 -89 17t-61 46.5t-35 67.5t-11 80q0 54 17 108.5t48.5 98.5t75.5 71.5t98 27.5q25 0 45 -7.5t34 -19.5t21.5 -27.5t7.5 -30.5v-2z" />
    <glyph glyph-name="ampersand" unicode="&#x26;" horiz-adv-x="572" 
d="M467 -74q-1 -12 -4.5 -16t-8.5 -4q-45 0 -84.5 23t-74.5 63q-31 -13 -67 -20t-78 -7q-44 0 -84.5 11t-71.5 33.5t-49 55.5t-18 78q0 38 16.5 74.5t43.5 71.5t62 69.5t71 69.5q-6 49 -6 93q0 57 9.5 107t30 86.5t52.5 58t76 21.5q25 0 41.5 -18t16.5 -57q0 -27 -10 -55
t-27 -56.5t-39 -57t-46 -56.5q2 -57 10 -119t21 -121.5t31.5 -114.5t42.5 -99q32 26 48.5 64.5t16.5 83.5q0 47 -19.5 93.5t-61.5 81.5q17 8 33 11t30 3q27 0 47 -10t34 -28t21 -42t7 -51q0 -30 -8.5 -62t-26 -63t-43.5 -59t-62 -49q26 -40 58 -63.5t70 -23.5zM227 8
q28 0 49 7q-28 36 -51.5 80.5t-42 93t-32.5 99.5t-23 100q-36 -45 -60.5 -88.5t-24.5 -85.5q0 -51 16 -90t42.5 -64.5t59.5 -38.5t67 -13zM217 523q42 46 70 93t28 97q0 55 -20 55q-11 0 -24.5 -17.5t-25.5 -48.5t-20 -72.5t-8 -90.5v-16z" />
    <glyph glyph-name="quotesingle" unicode="'" horiz-adv-x="268" 
d="M89 812q16 17 33 25t33 8q23 0 39 -18.5t16 -59.5q0 -26 -6.5 -54.5t-17.5 -52t-26.5 -38.5t-34.5 -15q-12 0 -25 7q2 14 3.5 31t1.5 38q0 26 -3.5 58t-12.5 71z" />
    <glyph glyph-name="parenleft" unicode="(" horiz-adv-x="306" 
d="M351 -140q9 -5 9 -10t-5 -7q-2 -2 -4 -2q-67 4 -125 46.5t-100.5 110.5t-67 155t-24.5 181q0 76 17.5 152t56.5 146.5t100.5 131t149.5 104.5q7 3 11 3q7 0 7 -9q0 -2 -0.5 -3.5t-0.5 -3.5q-1 -2 -1 -4q-59 -34 -104 -91t-76 -127.5t-46.5 -150.5t-15.5 -161
q0 -73 13 -143.5t40 -131t68.5 -109t97.5 -77.5z" />
    <glyph glyph-name="parenright" unicode=")" horiz-adv-x="275" 
d="M-102 852q-9 5 -9 10q0 3 4 7q2 1 5 2q67 -4 125 -46.5t100.5 -110.5t67 -155t24.5 -181q0 -76 -17.5 -152t-56.5 -146.5t-100.5 -131t-149.5 -104.5q-8 -3 -11 -3q-7 0 -7 9q0 5 1 7q0 2 1 4q59 34 104 91t76 127.5t46.5 150.5t15.5 161q0 73 -13 143.5t-40 131
t-68.5 109t-97.5 77.5z" />
    <glyph glyph-name="asterisk" unicode="*" horiz-adv-x="296" 
d="M133 621q0 12 -6 22t-12.5 17.5t-12.5 13.5t-6 11q0 11 13 16.5t28 5.5q14 0 26 -5t12 -16q0 -6 -5.5 -12.5t-11.5 -14t-11.5 -17t-5.5 -21.5q13 2 23.5 8.5t19 13t15.5 12t14 5.5q11 0 16.5 -11t5.5 -25t-5.5 -25.5t-16.5 -11.5q-4 0 -10 4t-14 8.5t-19 8.5t-24 4
q5 -11 16.5 -18t23 -13t20.5 -12t9 -15q0 -13 -14.5 -23t-28.5 -10q-13 0 -18 9q-4 7 -4.5 17.5t-1 21.5t-2.5 22t-9 18q-7 -7 -9.5 -18t-3 -22t-1 -21.5t-4.5 -17.5q-6 -10 -18 -10q-14 0 -28.5 10.5t-14.5 23.5q0 9 8 14.5t19 11t22.5 13t19.5 19.5q-14 0 -24.5 -4
t-18.5 -8.5t-13.5 -8.5t-9.5 -4q-11 0 -16.5 11.5t-5.5 25.5t5.5 25t16.5 11q7 0 14 -5.5t15.5 -12t19 -13t23.5 -8.5z" />
    <glyph glyph-name="plus" unicode="+" horiz-adv-x="440" 
d="M168 293v-122q0 -13 -8.5 -23.5t-15.5 -10.5t-7 11v145h-122q-13 0 -22.5 4.5t-9.5 12.5t9 14h145v122q0 13 8.5 23.5t15.5 10.5t7 -11v-145h122q13 0 22.5 -4.5t9.5 -12.5t-9 -14h-145z" />
    <glyph glyph-name="comma" unicode="," horiz-adv-x="260" 
d="M85 -16q-13 -4 -27 -4t-22.5 5t-13.5 12t-6.5 15t-1.5 13q0 26 20 40t43 14q20 0 36.5 -12.5t16.5 -39.5q0 -21 -10 -44.5t-27.5 -43t-42 -32.5t-53.5 -13q-10 0 -15 6.5t-5 11.5h5q19 0 37.5 7.5t33 18.5t23.5 22.5t9 20.5v3z" />
    <glyph glyph-name="hyphen" unicode="-" horiz-adv-x="533" 
d="M446 128q-15 11 -51 11q-23 0 -52 -3.5t-60 -7.5t-61.5 -7.5t-57.5 -3.5q-21 0 -39 1t-31 5t-20.5 11.5t-7.5 20.5q0 9 4 21.5t14 28.5q8 -20 36 -28t66 -8q35 0 74 4.5t73.5 10.5t61 10.5t35.5 4.5q32 0 32 -27q0 -18 -16 -44z" />
    <glyph glyph-name="period" unicode="." horiz-adv-x="291" 
d="M161 31q0 -26 -19.5 -40t-42.5 -14q-20 0 -35 10.5t-15 33.5q0 26 19.5 40t42.5 14q20 0 35 -10.5t15 -33.5z" />
    <glyph glyph-name="slash" unicode="/" horiz-adv-x="462" 
d="M634 828q4 -2 8 -6q3 -3 6 -7t3 -10q0 -10 -11 -24l-718 -905q-6 -8 -21 -8q-7 0 -13 2.5t-9 8.5z" />
    <glyph glyph-name="zero" unicode="0" horiz-adv-x="719" 
d="M519 642v-8.5t-1 -9.5q60 -40 90 -112t30 -156q0 -74 -23 -148t-68 -133t-112.5 -96.5t-155.5 -37.5q-82 0 -141 27.5t-96.5 73.5t-55.5 107t-18 127q0 85 27 171.5t77 156t120 113.5t156 44q35 0 65 -10t53 -26.5t37 -38t16 -44.5zM391 660q22 0 42 -3.5t39 -9.5
q-11 46 -46.5 69t-81.5 23q-60 0 -104 -28.5t-73 -75.5t-43.5 -107.5t-14.5 -124.5q0 -69 16 -136t47.5 -120t78.5 -85.5t108 -32.5q62 0 109 27.5t78.5 72.5t47.5 102t16 116q0 36 -6 71.5t-18.5 67.5t-31 59.5t-43.5 48.5q-7 -24 -20 -44.5t-35 -20.5q-9 0 -14 2
q9 11 17 24q6 11 11.5 25.5t5.5 29.5v7q-21 11 -45.5 17t-52.5 6q-32 0 -60.5 -6.5t-50.5 -14.5t-36 -15t-16 -9q-7 0 -7 6q0 5 4.5 10.5t10.5 8.5q46 23 88.5 31.5t79.5 8.5z" />
    <glyph glyph-name="one" unicode="1" horiz-adv-x="286" 
d="M169 757q-4 -121 -5.5 -217.5t-1.5 -177.5q0 -56 1 -106.5t3 -97.5t6 -92.5t9 -91.5q-36 -9 -62 -9q-55 0 -76.5 36t-21.5 99q0 57 13.5 131t32 155.5t37 167t28.5 166.5q-19 -45 -45.5 -67t-49.5 -22q-17 0 -27.5 12t-10.5 37q0 23 10 52q13 -10 29 -10q18 0 35 11
t31 23.5t23 23.5t10 11q28 0 32 -34z" />
    <glyph glyph-name="two" unicode="2" horiz-adv-x="547" 
d="M465 621q0 -45 -16 -96t-44 -104.5t-64.5 -106.5t-77 -101.5t-83.5 -89.5t-82 -70q36 -4 74.5 -10t76.5 -11t73.5 -9t65.5 -4q31 0 54.5 5t35.5 18q0 -5 0.5 -9t0.5 -9q0 -42 -15 -65t-38 -34.5t-49.5 -13.5t-48.5 -2q-29 0 -64.5 12.5t-72 30.5t-72.5 37t-66 32
q-9 -6 -22.5 -14t-27.5 -15t-28 -12t-26 -5q-18 0 -27 8t-9 19q0 18 25.5 37t80.5 19q8 0 17.5 -0.5t19.5 -1.5q23 20 51 57t57 85t57 103.5t49.5 112t34.5 110.5t13 99q0 34 -9 59.5t-24 42.5t-34.5 25.5t-39.5 8.5q-21 0 -42 -9.5t-37.5 -29t-27 -48.5t-10.5 -68
q0 -20 3 -44q-43 -28 -66 -28q-27 0 -40.5 16t-13.5 41q0 28 17 62t50 64t82 50t114 20q61 0 104 -12t70 -34t39 -52t12 -66zM-39 -1q11 0 29 11t33 22q-17 6 -30 6q-17 0 -27.5 -12t-10.5 -20q0 -7 6 -7z" />
    <glyph glyph-name="three" unicode="3" horiz-adv-x="649" 
d="M97 228q-52 0 -74.5 -25.5t-22.5 -61.5q0 -43 13.5 -75.5t36.5 -54t53 -32.5t63 -11q40 0 80.5 17t73 51t53 86t20.5 123q0 53 -10 99.5t-33 75.5q-29 -14 -62 -22.5t-70 -8.5q-27 0 -41 9.5t-14 22.5q0 18 28.5 36t87.5 18q16 0 31 -1.5t29 -3.5q24 32 37 73.5t13 82.5
q0 27 -5.5 51.5t-19.5 42.5t-37 29t-57 11q-25 0 -48 -9t-40.5 -28t-28 -48.5t-10.5 -70.5q0 -20 3 -44q-43 -28 -66 -28q-27 0 -40.5 16t-13.5 41q0 28 17 62t50 64t82 50t114 20q56 0 96 -12t65.5 -33t37.5 -48.5t12 -58.5q0 -48 -26 -96.5t-73 -84.5q36 -15 63 -38
t45 -51t27.5 -60t9.5 -66q0 -77 -31.5 -135t-81 -97t-111 -58.5t-122.5 -19.5q-48 0 -91.5 12t-76.5 37t-52.5 62.5t-19.5 87.5q0 33 12 65t34.5 57t55.5 40t76 15q44 0 65.5 -16t21.5 -39q0 -17 -13 -34t-39 -31q-17 24 -36.5 34.5t-39.5 10.5zM230 409q26 0 48 10t40 27
q-16 8 -35 8q-42 0 -65 -10.5t-23 -20.5q0 -14 35 -14z" />
    <glyph glyph-name="four" unicode="4" horiz-adv-x="586" 
d="M482 206q-9 3 -23 3q-23 0 -57 -7t-76 -15v-54q0 -48 3 -93t9 -85q-21 -6 -44 -6q-18 0 -35 5t-30 16t-21 29.5t-8 45.5t3 58t8 63q-32 -5 -64.5 -7.5t-66.5 -2.5q-27 0 -50.5 2.5t-40.5 9t-26.5 18t-9.5 30.5q0 44 20.5 89t51.5 90.5t67 92t67 94.5t51.5 98t20.5 102
q0 22 -4 41q73 -10 103.5 -34t30.5 -58q0 -36 -27.5 -80.5t-69 -91.5t-90 -94.5t-90 -90t-69 -76.5t-27.5 -55q0 -15 5 -25t18.5 -16.5t37 -9t61.5 -2.5q26 0 53 4t54 11q12 58 29.5 118t39.5 116t48 105t53 85q10 13 18 13t16 -7q-17 -15 -32.5 -53.5t-27.5 -92.5t-20 -119
t-12 -133q35 10 69.5 16.5t69.5 6.5q25 0 34.5 -6t9.5 -14q0 -10 -9.5 -20t-20.5 -14z" />
    <glyph glyph-name="five" unicode="5" horiz-adv-x="639" 
d="M164 -32q47 0 85.5 30t66.5 77.5t43 105.5t15 114q0 39 -8.5 74.5t-26 62.5t-44.5 43t-65 16q-45 0 -97.5 -23.5t-105.5 -67.5q-14 0 -21 6.5t-7 15.5q1 5 5.5 19t9.5 35t9 49t4 62q0 30 -4 64t-15 72q0 8 3 14q2 5 7 10t14 5q34 0 78 -2t92 -2q35 0 70 2t68 8t61.5 17
t51.5 29q50 -44 50 -91q0 -37 -38.5 -63.5t-123.5 -26.5q-34 0 -70.5 10t-73.5 24t-73 29t-69 25q5 -38 8 -65t3 -52q0 -29 -5 -63t-16 -88q50 31 98.5 53.5t110.5 22.5q72 0 123.5 -19t84.5 -51.5t48 -75t15 -89.5q0 -62 -24 -125.5t-67.5 -115t-103.5 -84t-132 -32.5
q-48 0 -91.5 12t-76.5 37t-52.5 62.5t-19.5 87.5q0 33 12 65t34.5 57t55.5 40t76 15q44 0 65.5 -16t21.5 -39q0 -17 -13 -34t-39 -31q-17 24 -36.5 34.5t-39.5 10.5q-52 0 -74.5 -25.5t-22.5 -61.5q0 -43 13.5 -75.5t36.5 -54t53 -32.5t63 -11z" />
    <glyph glyph-name="six" unicode="6" horiz-adv-x="626" 
d="M344 758q-63 0 -110 -39.5t-78.5 -103t-47 -142.5t-15.5 -158q0 -66 10.5 -127t32 -107.5t53.5 -74.5t75 -28q40 0 69.5 23.5t48.5 61t28.5 84t9.5 92.5q0 105 -28 153t-65 48q-21 0 -43 -15t-40.5 -44t-32 -70.5t-17.5 -94.5q-19 -7 -30 -7q-19 0 -28 13t-9 34
q0 52 18 91.5t48 66.5t67.5 40.5t76.5 13.5q37 0 73 -13t63.5 -40t44.5 -68t17 -97q0 -54 -19 -110t-56 -101t-92 -73.5t-127 -28.5q-75 0 -128 26t-87.5 70t-50.5 102t-16 123q0 60 13 122t37 120t59 109.5t78.5 90t95.5 60.5t111 22q52 0 87.5 -15.5t57 -39.5t31 -53.5
t9.5 -56.5q0 -17 -6.5 -33t-17 -28t-25 -19t-30.5 -7q-24 0 -46 16q19 29 27 54.5t8 48.5q0 25 -8.5 45t-23 34.5t-33.5 22t-39 7.5z" />
    <glyph glyph-name="seven" unicode="7" horiz-adv-x="433" 
d="M301 272q-14 5 -35 6.5t-47 1.5h-15t-15 -1q-1 -16 -1 -31.5v-31.5q0 -78 6 -146t12 -118q-11 -3 -21.5 -5t-19.5 -2q-51 0 -73 44.5t-22 114.5q0 38 5.5 80t16.5 88q-32 -4 -62 -9.5t-58 -11.5q-11 0 -17.5 4.5t-6.5 9.5q0 10 15 13q32 6 67 13.5t70 14.5
q12 45 27.5 89.5t34.5 87.5t40 82t44 72q-64 -20 -131.5 -33.5t-124.5 -13.5t-93 17t-36 59q0 21 11 49.5t35 64.5q13 -26 46 -41.5t75 -23.5t88.5 -10.5t87.5 -2.5q26 0 49 0.5t47 0.5q26 26 52.5 40.5t52.5 14.5q50 0 50 -15q0 -8 -14.5 -19.5t-39 -25t-58 -27
t-72.5 -26.5q-37 -77 -55.5 -159.5t-24.5 -163.5q26 3 51 5t50 2q34 0 34 -19q0 -18 -25 -38z" />
    <glyph glyph-name="eight" unicode="8" horiz-adv-x="604" 
d="M319 577q0 -31 -20.5 -60t-51.5 -60q43 -29 89 -57.5t83.5 -60.5t61.5 -69.5t24 -83.5q0 -65 -26 -113t-68.5 -80t-96 -48t-108.5 -16q-45 0 -91 12t-83 37t-60.5 63.5t-23.5 90.5q0 51 16.5 90.5t43 71.5t60.5 58.5t69 51.5q-35 45 -58 98.5t-23 122.5q0 45 18 78
t46.5 55t65 33t74.5 11q52 0 90.5 -15.5t63.5 -39.5t37.5 -53.5t12.5 -56.5q0 -17 -6.5 -33t-17 -28t-25 -19t-30.5 -7q-24 0 -46 16q29 45 29 85q0 27 -12.5 49t-32.5 37t-45.5 23t-51.5 8q-24 0 -46.5 -7t-40 -22t-28 -38t-10.5 -55q0 -53 36 -94.5t88 -78.5
q22 21 39.5 46t17.5 44q0 9 -5 15t-11.5 9t-14 4t-13.5 1q5 14 17 22.5t26 8.5t25 -10.5t13 -35.5zM360 114q0 40 -21 74.5t-51.5 66t-65 61t-60.5 59.5q-25 -26 -48.5 -54.5t-41.5 -61.5t-29 -71.5t-11 -82.5q0 -39 11.5 -67t30.5 -46t44.5 -26.5t52.5 -8.5q33 0 67 11.5
t61 32.5t44 49.5t17 63.5z" />
    <glyph glyph-name="nine" unicode="9" horiz-adv-x="562" 
d="M379 -45q-21 -6 -44 -6q-18 0 -35 5t-30 16t-21 29.5t-8 45.5q0 50 2.5 96.5t7.5 91.5q-49 -17 -99 -17q-60 0 -104.5 20t-73.5 53t-43 77t-14 92q0 62 23 125.5t66.5 114.5t107.5 83t146 32q48 0 86.5 -15.5t65.5 -37t41.5 -45.5t14.5 -41q0 -23 -23 -23q-9 0 -19 3
q-5 16 -15.5 39t-31 44.5t-52 36.5t-78.5 15q-53 0 -90.5 -23.5t-61.5 -62t-35 -87.5t-11 -99q0 -68 13.5 -115.5t36 -77.5t52 -44t62.5 -14q18 0 41 5q11 79 28.5 145.5t39 114.5t45 74.5t47.5 26.5q35 0 52 -26.5t17 -68.5q0 -69 -33.5 -131.5t-87.5 -107.5
q1 -59 3 -116.5t4.5 -104.5t5 -80t2.5 -42zM364 330q41 36 67 88.5t26 114.5q0 34 -11 55.5t-34 21.5q-14 0 -23.5 -22t-15 -59t-7.5 -85.5t-2 -101.5v-12z" />
    <glyph glyph-name="colon" unicode=":" horiz-adv-x="291" 
d="M161 261q0 -26 -19.5 -40t-42.5 -14q-20 0 -35 10.5t-15 33.5q0 26 19.5 40t42.5 14q20 0 35 -10.5t15 -33.5zM161 31q0 -26 -19.5 -40t-42.5 -14q-20 0 -35 10.5t-15 33.5q0 26 19.5 40t42.5 14q20 0 35 -10.5t15 -33.5z" />
    <glyph glyph-name="semicolon" unicode=";" horiz-adv-x="256" 
d="M127 261q0 -26 -19.5 -40t-42.5 -14q-20 0 -35 10.5t-15 33.5q0 26 19.5 40t42.5 14q20 0 35 -10.5t15 -33.5zM85 -16q-13 -4 -27 -4t-22.5 5t-13.5 12t-6.5 15t-1.5 13q0 26 20 40t43 14q20 0 36.5 -12.5t16.5 -39.5q0 -21 -10 -44.5t-27.5 -43t-42 -32.5t-53.5 -13
q-10 0 -15 6.5t-5 11.5h5q19 0 37.5 7.5t33 18.5t23.5 22.5t9 20.5v3z" />
    <glyph glyph-name="less" unicode="&#x3c;" horiz-adv-x="401" 
d="M31 303l249 -143q3 -6 3 -11q0 -12 -15 -12q-9 0 -23 7l-249 144q-7 4 -9 8.5t-2 8.5q0 2 0.5 4t1.5 5l258 149q14 7 23 7q15 0 15 -12q0 -5 -3 -11z" />
    <glyph glyph-name="equal" unicode="=" horiz-adv-x="440" 
d="M84 341q-13 0 -22.5 4.5t-9.5 12.5t9 14h298q13 0 22.5 -4.5t9.5 -12.5t-9 -14h-298zM84 245q-13 0 -22.5 4.5t-9.5 12.5t9 14h298q13 0 22.5 -4.5t9.5 -12.5t-9 -14h-298z" />
    <glyph glyph-name="greater" unicode="&#x3e;" horiz-adv-x="401" 
d="M-12 447q-3 6 -3 11q0 12 15 12q9 0 23 -7l258 -149q1 -3 1.5 -5t0.5 -4q0 -4 -2 -8.5t-9 -8.5l-249 -144q-14 -7 -23 -7q-15 0 -15 12q0 5 3 11l249 143z" />
    <glyph glyph-name="question" unicode="?" horiz-adv-x="390" 
d="M207 31q0 -26 -19.5 -40t-42.5 -14q-20 0 -35 10.5t-15 33.5q0 26 19.5 40t42.5 14q20 0 35 -10.5t15 -33.5zM-95 540q0 64 32.5 113t83 82t110 49.5t113.5 16.5q32 0 60 -6t48.5 -17.5t32.5 -29.5t12 -42q0 -48 -18.5 -88t-46.5 -76t-61 -69.5t-61 -68t-46.5 -71.5
t-18.5 -80t24 -62t59 -19q-5 -39 -24.5 -57t-42.5 -18q-26 0 -48.5 22.5t-22.5 64.5q0 49 13.5 89.5t33.5 75.5t43 65.5t43 59.5t33.5 57.5t13.5 59.5q0 80 -31.5 116.5t-74.5 36.5q-29 0 -59 -15.5t-54.5 -44t-40 -68t-15.5 -88.5q0 -46 15 -66t37 -20q16 0 33.5 9t33 25
t28.5 37.5t19 46.5q19 -18 19 -37q0 -22 -11.5 -41t-30.5 -33.5t-42 -22.5t-47 -8q-37 0 -64 9.5t-45 26t-26.5 39t-8.5 47.5z" />
    <glyph glyph-name="at" unicode="@" horiz-adv-x="808" 
d="M714 205q0 -44 -19.5 -82.5t-50.5 -67t-68 -45t-73 -16.5q-25 0 -46.5 8.5t-38.5 27.5q-29 -23 -65.5 -38t-80.5 -15q-65 0 -95 32.5t-30 78.5q0 37 17.5 76.5t50 72.5t78 54t102.5 21q32 0 49 -10.5t17 -21.5q0 -8 -10 -15t-32 -9q-7 23 -22.5 28.5t-32.5 5.5
q-23 0 -41 -15t-31 -39t-19.5 -53.5t-6.5 -57.5q0 -40 14.5 -69t46.5 -29q22 0 41 6.5t35 17.5q-22 39 -22 103q0 39 18 67t59 28q25 0 37 -16t12 -41q0 -26 -11.5 -56t-33.5 -59q14 -29 34 -42t43 -13q22 0 44 11.5t40 32t29 49t11 63.5q0 57 -23 100t-61 72t-87 43.5
t-102 14.5q-61 0 -121 -19.5t-107.5 -59.5t-77 -101t-29.5 -143q0 -60 23 -107.5t60 -81t82 -51t89 -17.5q38 0 71 14t56 43q11 -6 11 -15q0 -10 -12 -21.5t-34 -21.5t-53.5 -17t-71.5 -7q-54 0 -111 13.5t-104 44t-77.5 80.5t-30.5 122q0 91 42 161.5t109 118.5t149 72.5
t162 24.5q60 0 114 -14t95.5 -43.5t65.5 -73.5t24 -104zM446 168q0 -38 7 -63q16 25 24 51.5t8 46.5q0 16 -4.5 25.5t-15.5 9.5q-9 0 -14 -20.5t-5 -49.5z" />
    <glyph glyph-name="A" unicode="A" horiz-adv-x="842" 
d="M821 144q-51 -90 -109.5 -131t-111.5 -41q-36 0 -62.5 16t-45.5 43q-44 -35 -96.5 -56.5t-115.5 -21.5q-86 0 -148 25.5t-102.5 68.5t-60 100t-19.5 120q0 57 15.5 117t45.5 116t73.5 105t99 85.5t123.5 58t146 21.5q49 0 86 -12.5t61.5 -31t37 -41t12.5 -41.5
q0 -22 -15 -36.5t-45 -14.5q-16 0 -31 4q-3 45 -18.5 73t-37.5 43t-46 20.5t-45 5.5q-65 0 -111.5 -31.5t-77 -83t-45 -117t-14.5 -132.5q0 -63 12 -122t35 -105t56.5 -74t76.5 -28q35 0 66 8t58 22q-13 32 -18.5 70t-5.5 79q0 57 11 113.5t32 102t50 73.5t65 28
q37 0 55 -34.5t18 -89.5q0 -35 -7.5 -75.5t-22 -82.5t-36.5 -83t-50 -78q14 -42 34.5 -68t49.5 -26q32 0 72 33.5t86 108.5q19 32 34 63l19 -5q-7 -15 -15.5 -30t-17.5 -31zM529 311q0 -45 4.5 -89t14.5 -84q25 28 44 62t31.5 69t18.5 69.5t6 64.5q0 48 -14 79t-41 31
q-16 0 -28 -16.5t-20 -44t-12 -64.5t-4 -77z" />
    <glyph glyph-name="B" unicode="B" horiz-adv-x="840" 
d="M425 446h24.5t23.5 -2q28 56 28 119q0 34 -9.5 67t-29 58t-49.5 40.5t-71 15.5q-47 0 -96 -23t-88.5 -66.5t-65 -105.5t-25.5 -140q-30 -11 -49 -11q-24 0 -37 17t-13 42q0 52 21 98t57 84t84 68t102 50.5t110 31.5t109 11q65 0 110 -11t73.5 -30.5t41 -45t12.5 -55.5
q0 -27 -9.5 -57t-26.5 -59.5t-40.5 -57.5t-51.5 -53q93 -23 134 -73.5t41 -113.5t-35.5 -129.5t-98 -121.5t-146.5 -90.5t-180 -35.5q-38 0 -84 8t-86.5 27.5t-67.5 53t-27 84.5q0 27 9.5 52.5t27.5 47t44 38t58 24.5q-8 45 -13 95t-5 101q0 52 7 97.5t23.5 79t43.5 52.5
t68 19q-9 -57 -15 -111t-9.5 -107.5t-5 -108.5t-2.5 -113q17 -4 31.5 -12.5t14.5 -25.5q0 -11 -11 -20.5t-35 -11.5v-106q0 -8 -13 -16t-27 -8q-1 0 -5.5 12.5t-11 34.5t-14.5 52.5t-15 67.5q-24 -4 -44.5 -17t-35.5 -32.5t-23.5 -43t-8.5 -47.5q0 -35 16.5 -60t43.5 -40.5
t60.5 -23t67.5 -7.5q47 0 91 17t81.5 45.5t68.5 66.5t53 79.5t34 84.5t12 81t-13 70t-41 52q-42 -30 -87.5 -48t-88.5 -18q-19 0 -30 8.5t-11 25.5q0 13 8.5 27t24.5 26t39.5 19.5t52.5 7.5zM344 356q37 0 66 18t49 47q-18 3 -38 3q-19 0 -36 -5t-30 -12.5t-21 -16t-8 -16.5
q0 -18 18 -18z" />
    <glyph glyph-name="C" unicode="C" horiz-adv-x="701" 
d="M597 782q35 0 57 -11.5t22 -22.5q0 -15 -35 -18q-7 23 -22.5 28.5t-32.5 5.5q-21 0 -38 -13q43 -20 61 -55.5t18 -73.5q0 -26 -8 -51t-21.5 -44t-32 -30.5t-39.5 -11.5q-42 0 -61 28.5t-19 70.5q0 35 12.5 73t35.5 68q-14 9 -31.5 14.5t-39.5 5.5q-59 0 -106.5 -35
t-80.5 -91.5t-51 -127.5t-18 -143q0 -64 15 -124t47 -106.5t81 -74.5t118 -28q68 0 131 34t101 98q19 32 34 63l19 -5q-7 -15 -15.5 -30t-17.5 -31q-29 -51 -68.5 -91.5t-87.5 -69t-102.5 -43.5t-112.5 -15q-88 0 -151.5 26.5t-105 71.5t-61 104.5t-19.5 125.5q0 59 15 121
t44 119.5t70.5 108t94.5 88t116 59.5t136 22q23 0 43 -3.5t37 -8.5q15 11 32 17t37 6zM551 595q0 30 -9 61.5t-31 54.5q-20 -29 -31.5 -67t-11.5 -70t11.5 -49t26.5 -17q17 0 31 21t14 66z" />
    <glyph glyph-name="D" unicode="D" horiz-adv-x="863" 
d="M451 800q87 0 151.5 -31.5t107.5 -84.5t64 -122.5t21 -145.5q0 -64 -15 -130t-44.5 -127t-73 -114t-101.5 -92.5t-129.5 -62.5t-156.5 -23q-38 0 -84 8t-86.5 27.5t-67.5 53t-27 84.5q0 27 9.5 52.5t27.5 47t44 38t58 24.5q-8 45 -13 95t-5 101t6.5 96t23 78.5t44 53.5
t68.5 20q-9 -57 -15 -111t-9.5 -107.5t-5 -108.5t-2.5 -113q17 -4 31.5 -12.5t14.5 -25.5v-2q-1 -11 -12 -19.5t-34 -10.5v-106q0 -8 -13 -16t-27 -8q-1 0 -5.5 12.5t-11 34.5t-14.5 52.5t-15 67.5q-24 -4 -44.5 -17t-35.5 -32.5t-23.5 -43t-8.5 -47.5q0 -35 16.5 -60
t43.5 -40.5t60.5 -23t67.5 -7.5q91 0 158 41t110.5 107t65 149t21.5 167q0 73 -16 141.5t-47 121t-76.5 84t-104.5 31.5q-47 0 -96 -23t-88.5 -66.5t-65 -105.5t-25.5 -140q-30 -11 -49 -11q-24 0 -37 17t-13 42q0 52 21 98t57 84t84 68t102 50.5t110 31.5t109 11z" />
    <glyph glyph-name="E" unicode="E" horiz-adv-x="631" 
d="M139 592q0 47 19 83.5t50 61.5t69 38t76 13q27 0 56 -8q15 11 32.5 18t37.5 7q35 0 57 -11.5t22 -22.5q0 -7 -12 -16t-31 -11q-13 43 -47 43q-11 0 -20.5 -4t-19.5 -10q35 -16 58 -47.5t23 -80.5q0 -26 -8 -51t-21.5 -44t-32 -30.5t-39.5 -11.5q-41 0 -59.5 29t-18.5 71
q0 33 11 69.5t32 65.5q-19 8 -38 8q-26 0 -53.5 -12.5t-49.5 -35.5t-36 -55t-14 -70q0 -15 1 -29t3 -27q30 6 66 6q48 0 73 -23t25 -48q0 -20 -16 -35t-49 -15q-42 0 -72.5 21.5t-48.5 55.5q-29 -22 -42.5 -59.5t-13.5 -82.5q0 -66 24 -125.5t63 -104.5t89.5 -71.5
t103.5 -26.5q54 0 106.5 31t95.5 102q19 32 34 63l19 -5q-7 -15 -15.5 -30t-17.5 -31q-28 -51 -69 -90t-89 -65.5t-100.5 -40.5t-103.5 -14q-57 0 -110 18t-93 55t-64 94.5t-24 135.5q0 44 11.5 87.5t35.5 80.5t60.5 65.5t86.5 43.5q-12 37 -12 78zM433 618q0 43 -12 71
t-31 43q-20 -29 -31 -66t-11 -69q0 -30 12 -50.5t39 -20.5q14 0 24 27.5t10 64.5zM244 509q-31 0 -53 -9q10 -32 32 -51t63 -19q18 0 27 9t9 21q0 17 -18.5 33t-59.5 16z" />
    <glyph glyph-name="F" unicode="F" horiz-adv-x="686" 
d="M355 -42q-16 0 -28.5 15.5t-21 43.5t-13 65.5t-4.5 82.5v14q-81 -19 -154.5 -36.5t-121.5 -26.5q-12 0 -16 6q-3 3 -3 6t3 6q5 5 19 9q11 2 37.5 8.5t63 15t81.5 19t92 21.5q2 54 11 113t24.5 117.5t38.5 114t54 102.5q-53 -16 -116 -31.5t-128.5 -28t-130.5 -20
t-122 -7.5q-44 0 -81 5t-64 16.5t-42 30t-15 45.5q0 18 5 34.5t13.5 29.5t20 21.5t24.5 8.5q38 -29 105.5 -41t150.5 -12q55 0 115 2t118 5t111.5 7.5t96.5 9.5q38 38 86 59.5t105 21.5q13 0 22 -3.5t9 -11.5q0 -6 -7.5 -15t-25 -21t-46 -26.5t-71.5 -32.5q-13 -5 -29.5 -11
t-36.5 -13q-19 -41 -31.5 -94t-20 -111t-11 -118.5t-3.5 -116.5q68 14 123 24t81 10q23 0 23 -10q0 -8 -10.5 -16.5t-21.5 -10.5q-3 0 -7 0.5t-8 0.5q-31 0 -77.5 -7.5t-102.5 -18.5q0 -85 4.5 -147.5t8.5 -82.5q0 -4 -9.5 -7.5t-22 -6.5t-25 -4.5t-19.5 -1.5zM606 777
q-49 0 -85 -42q6 1 23 4t34.5 8t31 11t13.5 12q0 7 -17 7z" />
    <glyph glyph-name="G" unicode="G" horiz-adv-x="703" 
d="M174 -436q0 70 29 143t74.5 142t101 131.5t108.5 111.5l-32 100q-47 -35 -103.5 -57.5t-122.5 -22.5q-60 0 -104 17t-72 46.5t-41.5 69t-13.5 84.5q0 46 14.5 96.5t41.5 99.5t65.5 93.5t86.5 78t104.5 53.5t119.5 20q49 0 86 -12.5t61.5 -31t37 -41t12.5 -41.5
q0 -22 -15 -36.5t-45 -14.5q-16 0 -31 4q-3 45 -18.5 73t-37.5 43t-46 20.5t-45 5.5q-56 0 -100.5 -30.5t-75 -79t-46.5 -108t-16 -117.5q0 -43 9 -81.5t28.5 -68t48.5 -47t70 -17.5q42 0 75.5 10t62.5 27q-15 50 -24 92.5t-9 73.5q0 44 11.5 76t29.5 52.5t40 30t43 9.5
q42 0 62 -25t20 -65q0 -47 -25 -105t-72 -112q8 -65 23 -135t29.5 -138t25.5 -131t11 -113q0 -96 -26.5 -175.5t-67.5 -135.5t-91 -87t-97 -31q-32 0 -60 15t-49 46t-33 79.5t-12 115.5zM579 -287q0 35 -7.5 77.5t-19.5 89t-27.5 95.5t-31.5 98q-55 -54 -87.5 -108.5
t-49.5 -108.5t-22 -108.5t-5 -109.5q0 -46 8.5 -79.5t23 -56t33 -33.5t39.5 -11q26 0 52 16.5t47 49t34 80t13 109.5zM515 345v-26t2 -27q19 24 32.5 50t22.5 51.5t13 49t4 42.5q0 22 -5.5 35t-15.5 13q-17 0 -27.5 -16.5t-16 -43t-7.5 -60t-2 -68.5z" />
    <glyph glyph-name="H" unicode="H" horiz-adv-x="698" 
d="M185 -71q-3 -13 -26 -21q-3 0 -13 20.5t-24.5 55.5t-31.5 82.5t-34 102.5l-64 -24q-7 1 -18.5 3.5t-11.5 8.5q0 13 22 26.5t60 27.5q-23 84 -39.5 173.5t-16.5 171.5q0 56 10 105.5t33 86.5t60.5 59.5t93.5 25.5q-14 -86 -20 -202.5t-6 -242.5v-73t2 -72q56 13 118 24
t124 19q-14 88 -23.5 176t-9.5 163q0 26 7.5 51t22 44.5t35.5 31t48 11.5q24 0 54 -12q-12 -105 -17 -214.5t-6 -239.5q45 3 84 3q29 0 42.5 -13t13.5 -29q0 -13 -7 -24t-21 -17q-23 8 -51 13t-62 7v-270q0 -13 -7.5 -18.5t-18.5 -5.5q-10 0 -17 3q-11 46 -27.5 123
t-31.5 168q-58 -3 -120.5 -12t-128.5 -25q3 -76 9 -145t14 -126z" />
    <glyph glyph-name="I" unicode="I" horiz-adv-x="245" 
d="M117 -8q0 -4 -5.5 -7.5t-13.5 -6.5t-17 -4.5t-16 -1.5q-9 0 -19 26t-19.5 68t-17.5 96t-14.5 111t-10 111.5t-3.5 97.5q0 70 7.5 122t27 87.5t53.5 54.5t86 22q-11 -73 -18 -170t-11.5 -202t-6.5 -210.5t-2 -193.5z" />
    <glyph glyph-name="J" unicode="J" horiz-adv-x="552" 
d="M94 802q26 -29 74 -41t106 -12q52 0 108 7.5t106.5 18t90.5 21.5t61 19q14 -17 14 -33q0 -12 -21.5 -29t-57.5 -35.5t-83 -37.5t-98 -34q2 -42 7.5 -93t11.5 -106t11 -112.5t5 -113.5q0 -73 -11 -138.5t-40 -115.5t-80 -79.5t-130 -29.5q-32 0 -62 7.5t-53.5 24t-38 42
t-14.5 60.5q0 26 12 48t30.5 37.5t40 24t41.5 8.5q22 0 36.5 -11.5t14.5 -37.5q0 -21 -10 -48q-45 -5 -63 -21t-18 -35q0 -38 25.5 -58t61.5 -20q28 0 57.5 12.5t54 39.5t40 68.5t15.5 99.5q0 33 -14 78t-31.5 96t-31.5 104.5t-14 103.5q0 41 13 77.5t45 65.5
q-30 -6 -58.5 -9.5t-54.5 -3.5q-62 0 -102 22t-40 75q0 18 3.5 34.5t9.5 29.5t14 21.5t17 8.5z" />
    <glyph glyph-name="K" unicode="K" horiz-adv-x="556" 
d="M-73 751q55 37 107 37q49 0 81.5 -35.5t32.5 -105.5q0 -66 -6.5 -142t-10.5 -155q77 48 139 102.5t110.5 111.5t85 114t63.5 110q38 -26 55 -53t17 -55q0 -31 -18 -63t-49 -62.5t-71.5 -60t-84.5 -56.5t-89.5 -51t-86.5 -44q40 -87 97.5 -163t120.5 -133t125.5 -91
t113.5 -37q-6 -47 -33.5 -70t-64.5 -23q-60 0 -115.5 35.5t-104.5 101t-91.5 158.5t-77.5 208l-43 -20q-1 -15 -1 -30v-29q0 -90 15.5 -168.5t60.5 -129.5q-55 -37 -107 -37q-49 0 -81.5 35.5t-32.5 105.5q0 49 4.5 106.5t9.5 117.5t9.5 120t4.5 115q0 44 -4 83t-13.5 69.5
t-25.5 52.5t-41 31z" />
    <glyph glyph-name="L" unicode="L" horiz-adv-x="372" 
d="M664 -134q-4 -24 -9 -44.5t-16.5 -35.5t-32.5 -23t-57 -8q-35 0 -81 24t-98 57t-106.5 67t-104.5 53q-8 -18 -22 -31t-32 -21t-38.5 -12t-39.5 -4q-35 0 -60.5 11t-25.5 31q0 14 9 25t24 19t34.5 13.5t40.5 9.5q-2 27 -3 62.5t-1 77.5q0 63 4 134t16 141t33.5 134.5
t56 113.5t84 78.5t116.5 29.5q65 0 92.5 -29t27.5 -71q0 -37 -18.5 -78t-49.5 -75.5t-72 -57.5t-86 -23q-4 0 -7 1t-3 6t5 15q26 11 46.5 32.5t34.5 47.5t21.5 54t7.5 53q0 34 -14 57t-45 23q-47 0 -78 -28t-49 -74.5t-25 -108.5t-7 -129q0 -96 10 -189t20 -190
q68 -2 129.5 -24t118 -48t110.5 -47.5t107 -21.5q16 0 33 3zM23 -70q7 0 14.5 10t10.5 30q-23 -4 -32.5 -11.5t-9.5 -15.5q0 -13 17 -13z" />
    <glyph glyph-name="M" unicode="M" horiz-adv-x="1112" 
d="M371 699q-14 0 -30.5 -29t-34 -78t-35.5 -112t-34 -130.5t-30.5 -135t-25 -125.5t-16.5 -100.5t-6 -60.5q0 -5 -8 -10.5t-18 -9.5q-3 0 -17 28t-33 75t-40 109t-39 130.5t-30 139.5t-12 136q0 54 10 101t33 82.5t60.5 57t93.5 24.5q-14 -87 -20.5 -198.5t-6.5 -230.5
q0 -81 3 -161t10 -154q14 81 29 169t33.5 172.5t39.5 160t47.5 133t57.5 91t69 33.5q29 0 47.5 -27t29.5 -74q11 -45 16.5 -103.5t7.5 -124t2.5 -134.5t1.5 -135q18 104 39 198.5t48 166.5t62 115t83 43q39 0 61.5 -31t34.5 -81.5t16.5 -115.5t7 -133t6.5 -133.5t15 -117.5
q11 -49 26 -69t32 -20q15 0 31 11.5t31 29t28.5 38t23.5 38.5q19 32 34 63l19 -5q-7 -15 -15.5 -30t-17.5 -31q-18 -33 -44.5 -72.5t-57 -74t-63.5 -58t-64 -23.5q-47 0 -76 39.5t-45 101t-21 135.5t-5 144q0 69 2.5 124t2.5 81q0 38 -2.5 60.5t-9.5 22.5q-15 0 -31.5 -27.5
t-33 -72.5t-33 -103.5t-31.5 -120.5t-28 -124t-22 -113q2 -39 5.5 -72t8.5 -59q-8 -2 -14 -2h-13q-35 0 -59.5 16.5t-40.5 45t-24.5 66.5t-12.5 81t-5 88t-1 87q0 75 5 149.5t5 152.5q0 38 -2.5 60.5t-9.5 22.5z" />
    <glyph glyph-name="N" unicode="N" horiz-adv-x="759" 
d="M159 -72q0 -5 -8 -10.5t-18 -9.5q-3 0 -17 28t-33 75t-40 109t-39 130.5t-30 139.5t-12 136q0 54 10 101t33 82.5t60.5 57t93.5 24.5q-14 -86 -20 -196t-6 -228q0 -83 3 -164t9 -156q14 86 30 175.5t34 174t39 159t47 130t57 88t69 32.5q39 0 60.5 -36.5t31.5 -95.5
t12.5 -133.5t3 -151t3.5 -147.5t14 -123q11 -49 26 -69t32 -20q15 0 31 11.5t31 29t28.5 38t23.5 38.5q19 32 34 63l19 -5q-7 -15 -15.5 -30t-17.5 -31q-18 -33 -44.5 -72.5t-57 -74t-63.5 -58t-64 -23.5q-28 0 -49 17t-36.5 46.5t-25 69t-15.5 85t-8 95t-2 98.5
q0 48 1.5 93t3.5 83.5t3.5 67.5t1.5 45q0 38 -2.5 60.5t-9.5 22.5q-14 0 -31 -29t-34.5 -78t-35 -112t-33.5 -131t-30.5 -135.5t-25 -125t-16.5 -100t-6 -60.5z" />
    <glyph glyph-name="O" unicode="O" horiz-adv-x="813" 
d="M609 674q69 -42 104 -120.5t35 -171.5q0 -77 -25 -154.5t-76.5 -139.5t-129.5 -100.5t-184 -38.5q-61 0 -117 19.5t-98.5 58.5t-68 99t-25.5 141q0 86 22 157.5t58.5 129t84 100.5t98.5 71.5t102 43t94 14.5q34 0 58 -9t39 -24.5t22 -35t7 -40.5zM484 707q11 0 22.5 -1
t22.5 -3q-4 20 -18.5 33t-42.5 13q-30 0 -69.5 -20t-75.5 -64t-60.5 -115.5t-24.5 -174.5q0 -94 16.5 -160t43.5 -108t62.5 -61.5t74.5 -19.5q67 0 119.5 32t87.5 84t53.5 116.5t18.5 130.5q0 78 -26.5 147.5t-82.5 109.5q-6 -23 -21.5 -40.5t-35.5 -29.5t-42.5 -18.5
t-44.5 -6.5q-44 0 -63.5 20t-19.5 46q0 16 7 32t20.5 29t33.5 21t45 8zM476 686q-18 0 -31.5 -6.5t-22.5 -17t-13.5 -22.5t-4.5 -24q0 -14 7.5 -24.5t21.5 -10.5q13 0 29 9t30 23.5t24.5 32t12.5 34.5q-24 6 -53 6z" />
    <glyph glyph-name="P" unicode="P" horiz-adv-x="698" 
d="M739 620q0 -52 -26 -109.5t-71 -109.5t-104.5 -93t-125.5 -59q-2 -66 -2 -131.5v-131.5q0 -18 -4 -35.5t-14 -31.5t-25.5 -23t-39.5 -9q-89 0 -154.5 30t-108.5 81t-64.5 118t-21.5 140q0 62 15 125t45 121.5t74.5 110t103 89.5t131.5 60t159 22q63 0 107 -12.5t72 -35
t41 -52.5t13 -64zM357 -45q0 10 -6 37.5t-14.5 66.5t-18.5 85t-18 93q-38 2 -60 11.5t-22 20.5q0 7 11 15q16 -7 32.5 -12t33.5 -7q-5 35 -8.5 68t-3.5 59q0 42 7.5 79t26 67t49 52t76.5 33q-13 -83 -19.5 -166.5t-9.5 -168.5q37 20 67.5 52.5t51.5 71.5t32.5 81.5
t11.5 83.5q0 35 -9 66t-28.5 54.5t-50 37t-72.5 13.5q-46 0 -84 -20t-68.5 -54.5t-53.5 -81.5t-38.5 -101t-23 -112t-7.5 -115q0 -69 11 -133t33.5 -112.5t56.5 -77.5t79 -29q16 0 26 10t10 33z" />
    <glyph glyph-name="Q" unicode="Q" horiz-adv-x="669" 
d="M551 91q-12 0 -25 1q-11 0 -25 0.5t-28 1.5q-2 -41 -4 -83.5t-3 -87.5q39 -56 76 -119.5t66 -128t46.5 -125t17.5 -108.5q0 -55 -27 -88.5t-91 -33.5q-38 0 -65.5 27t-46.5 72.5t-30.5 105t-17.5 124.5t-8 131.5t-2 124.5v79q-29 37 -48.5 60.5t-19.5 32.5q0 21 20 31.5
t49 13.5v26q-35 -17 -74 -26.5t-82 -9.5q-60 0 -104 17t-72 46.5t-41.5 69t-13.5 84.5q0 46 14.5 96.5t41.5 99.5t65.5 93.5t86.5 78t104.5 53.5t119.5 20q49 0 86 -12.5t61.5 -31t37 -41t12.5 -41.5q0 -22 -15 -36.5t-45 -14.5q-16 0 -31 4q-3 45 -18.5 73t-37.5 43
t-46 20.5t-45 5.5q-56 0 -100.5 -30.5t-75 -79t-46.5 -108t-16 -117.5q0 -43 9 -81.5t28.5 -68t48.5 -47t70 -17.5q40 0 78 11q1 72 2.5 124t1.5 72q0 44 15 75.5t37.5 51t48 28.5t46.5 9q42 0 62 -25t20 -65q0 -28 -9 -60.5t-26.5 -66.5t-43 -67.5t-57.5 -62.5
q-2 -22 -3.5 -45t-3.5 -47h67q16 0 16 -13q0 -8 -7 -18zM572 -490q0 107 -32 196.5t-74 159.5v-36q0 -12 -2.5 -42.5t-6 -66.5t-6 -69.5t-2.5 -49.5q0 -94 20.5 -143t45.5 -49q30 0 43.5 27.5t13.5 72.5zM568 533q-12 0 -23.5 -19.5t-22 -55t-19.5 -86t-16 -112.5
q27 25 46.5 55t31.5 60.5t18 59t6 50.5t-5.5 35t-15.5 13zM385 94q-17 -5 -17 -17q0 -14 17 -41v58z" />
    <glyph glyph-name="R" unicode="R" horiz-adv-x="628" 
d="M657 612q0 -83 -39 -154t-101 -128.5t-139 -100t-153 -67.5q0 -4 0.5 -7.5t1.5 -8.5q66 -27 133 -64.5t130.5 -72.5t122 -61t106.5 -29q-6 -47 -33.5 -70t-64.5 -23t-69.5 14.5t-62.5 38t-59 53.5t-60 62t-64.5 62.5t-72.5 54.5q17 -93 55 -159q-55 -37 -107 -37
q-49 0 -81.5 35.5t-32.5 105.5v37.5t2 36.5q-8 0 -15 -0.5t-14 -0.5q-27 0 -39.5 7t-12.5 17q0 12 18.5 23t52.5 11h14q14 144 54.5 261.5t96.5 200.5t123 128t134 45q44 0 77 -17.5t55 -46.5t33 -67t11 -79zM217 297q0 -29 1 -57t4 -56q55 25 104 62.5t86 85.5t59 104.5
t22 119.5q0 22 -3.5 53.5t-14 60.5t-30.5 49t-52 20q-42 0 -75 -38t-55.5 -100t-34 -141.5t-11.5 -162.5zM69 143q1 6 1.5 12.5t0.5 11.5h-3q-2 0 -4 0.5t-6 0.5q-15 0 -31 -6t-16 -12q0 -3 7 -5.5t24 -2.5q7 0 13.5 0.5t13.5 0.5z" />
    <glyph glyph-name="S" unicode="S" horiz-adv-x="716" 
d="M620 189q0 -74 -33.5 -130t-87 -93.5t-119.5 -56t-131 -18.5q-51 0 -97 11.5t-81.5 34.5t-56.5 57.5t-21 81.5q0 52 18 88t45.5 58.5t60.5 32.5t62 10q44 0 65.5 -16t21.5 -39q0 -17 -13 -34t-39 -31q-17 24 -36.5 34.5t-39.5 10.5q-24 0 -42 -9.5t-31 -25.5t-19.5 -37
t-6.5 -44q0 -29 11 -57.5t33.5 -51.5t58 -37.5t84.5 -14.5q45 0 89 13t79.5 40t57.5 67t22 94q0 35 -31.5 66.5t-79 62.5t-103 63t-103 67.5t-79 76.5t-31.5 90q0 60 33.5 107.5t86 80.5t117 51t126.5 18q76 0 132 -27q29 18 60 18q35 0 57 -11.5t22 -22.5q0 -15 -35 -18
q-7 23 -22.5 28.5t-32.5 5.5q-8 0 -16 -2.5t-16 -6.5q33 -21 53 -53.5t20 -79.5q0 -32 -10 -57t-26 -43t-36 -27.5t-39 -9.5q-28 0 -48.5 22.5t-20.5 72.5q0 34 12 71.5t34 68.5q-24 17 -55 25t-63 8q-39 0 -78 -10t-70 -28t-50.5 -42t-19.5 -51q0 -42 34 -76.5t85 -66.5
t110 -64.5t110 -69t85 -79t34 -96.5zM556 614q0 38 -12 65.5t-32 46.5q-19 -29 -30 -65t-11 -68q0 -30 12.5 -47t28.5 -17q17 0 30.5 20t13.5 65z" />
    <glyph glyph-name="T" unicode="T" horiz-adv-x="424" 
d="M254 -20q0 -4 -5.5 -7.5t-13.5 -6.5t-17 -4.5t-16 -1.5q-14 0 -27.5 33t-24 85.5t-17 118t-6.5 130.5q0 102 14 166t59 93q-42 -5 -82 -8.5t-76 -3.5q-44 0 -81 5t-64 16.5t-42 30t-15 45.5q0 18 5 34.5t13.5 29.5t20 21.5t24.5 8.5q38 -29 105.5 -41t150.5 -12
q75 0 155 7.5t152 18t129.5 21.5t87.5 19q19 -16 19 -33q0 -13 -35 -31.5t-93 -39t-132.5 -40t-152.5 -34.5q-20 -143 -27.5 -294.5t-7.5 -325.5z" />
    <glyph glyph-name="U" unicode="U" horiz-adv-x="739" 
d="M230 -11q46 0 86.5 32.5t75.5 85.5q-10 40 -14 85t-4 93q0 75 10 149.5t27 134t41 96.5t52 37q23 0 34.5 -32.5t11.5 -86.5q0 -40 -6 -88.5t-18 -101t-29 -106.5t-39 -104q5 -41 13.5 -75.5t20.5 -59.5t27.5 -39.5t34.5 -14.5q16 0 33.5 11.5t36.5 31t37.5 45t36.5 54.5
q19 32 34 63l19 -5q-7 -15 -15.5 -30t-17.5 -31q-18 -32 -43 -63t-52 -55.5t-55 -39.5t-52 -15q-42 0 -70 32t-45 84q-41 -61 -90.5 -99.5t-108.5 -38.5q-37 0 -68.5 19t-56.5 52.5t-44 78.5t-31.5 97t-19 109t-6.5 113q0 74 11 143t33 122t56 85t79 32q46 0 94 -18
q-10 -9 -21 -39t-23 -74t-23 -98.5t-19.5 -113.5t-13.5 -119.5t-5 -114.5q0 -47 4.5 -88t15 -71t26.5 -47t40 -17zM523 562q0 55 -12 88q-15 -29 -26.5 -67t-19 -82.5t-11 -92t-3.5 -95.5q0 -43 3 -82q16 42 29 86t22 87t13.5 83t4.5 75z" />
    <glyph glyph-name="V" unicode="V" horiz-adv-x="548" 
d="M443 406q0 -40 -4.5 -92t-15.5 -107t-28.5 -108.5t-42.5 -95.5t-59 -67.5t-77 -25.5q-38 0 -72.5 26t-64.5 70t-55 102t-42.5 121t-27 127.5t-9.5 122.5q0 60 7.5 113t23.5 93t41.5 63t60.5 23q30 0 56.5 -9t34.5 -19q-15 -23 -29 -72.5t-24 -113t-16 -136.5t-6 -143
q0 -87 11.5 -150t30.5 -104t43 -61t50 -20q25 0 49.5 19.5t44 56.5t31 91t11.5 124q0 62 -11.5 131.5t-25 133t-25 114t-11.5 75.5q0 42 18 75t48.5 58.5t71 43.5t86.5 29q-24 -31 -39 -67.5t-23.5 -76t-11 -82.5t-2.5 -86q0 -45 1.5 -89t1.5 -87z" />
    <glyph glyph-name="W" unicode="W" horiz-adv-x="823" 
d="M757 895q-24 -44 -32 -108t-8 -139q0 -78 4.5 -161.5t4.5 -164.5q0 -78 -8 -148t-31.5 -122.5t-66 -83.5t-112.5 -31q-64 0 -109.5 24.5t-75.5 66.5q-29 -51 -65.5 -83t-81.5 -32q-34 0 -64.5 24.5t-56 67t-46 98.5t-35 118.5t-22 129t-7.5 128.5q0 60 7.5 113t23.5 93
t41.5 63t60.5 23q30 0 56.5 -9t34.5 -19q-15 -23 -29 -72.5t-24 -113t-16 -136.5t-6 -143q0 -63 5.5 -120.5t17.5 -101t31.5 -69.5t47.5 -26q35 0 62.5 24.5t49.5 64.5q-29 50 -41.5 111.5t-12.5 125.5q0 60 10 116.5t26.5 100.5t38.5 70.5t46 26.5q23 0 34 -41t11 -106
q0 -72 -13.5 -159t-40.5 -167q11 -34 27 -63.5t37 -51.5t47.5 -34.5t59.5 -12.5q31 0 52 12.5t34 34.5t18.5 52.5t5.5 66.5q0 45 -7 97.5t-18 105.5t-23 105t-23 97t-18 81t-7 57q0 42 15 77.5t42 63.5t65 48t84 31zM332 358q0 -45 5 -93.5t17 -95.5q18 66 26.5 133.5
t8.5 120.5q0 43 -5.5 69.5t-16.5 26.5q-8 0 -14 -12.5t-11 -34t-7.5 -51t-2.5 -63.5z" />
    <glyph glyph-name="X" unicode="X" horiz-adv-x="668" 
d="M718 -121q-67 0 -132 20.5t-125 57.5t-114 88.5t-98 112.5q-51 -63 -105.5 -130.5t-110.5 -141.5q-5 -5 -12 -5q-8 0 -8 6q0 1 2 7q3 6 21.5 30.5t48 62.5t68.5 86.5t83 102.5q-63 92 -99.5 198.5t-36.5 215.5q0 35 13 61t33.5 43t44.5 25.5t47 8.5q27 0 46 -11
q-4 -26 -5.5 -51.5t-1.5 -51.5q0 -81 15.5 -160t44.5 -154q43 53 85.5 105t81.5 99t72.5 88t58 71t39 47.5t15.5 18.5q6 8 12 8q7 0 7 -7q0 -9 -2.5 -15t-5.5 -10q-25 -30 -63 -76t-85 -102t-99.5 -120t-106.5 -130q32 -78 76 -144.5t96 -116t109 -77.5t116 -28q39 0 75 13
q8 -7 8 -14q0 -8 -11.5 -14t-28.5 -10t-35.5 -5.5t-32.5 -1.5z" />
    <glyph glyph-name="Y" unicode="Y" horiz-adv-x="611" 
d="M93 -436q0 70 30 140.5t76.5 135.5t103 124t110.5 107l-16 51q-43 -67 -97 -103.5t-108 -36.5q-48 0 -92.5 31t-79 97.5t-55 171.5t-20.5 253q0 67 5.5 114.5t19 76.5t36.5 42.5t58 13.5t91 -14q-10 -9 -17.5 -38t-12.5 -70.5t-7.5 -92.5t-2.5 -106q0 -116 10.5 -196.5
t29 -131t42.5 -73t51 -22.5q35 0 70.5 32.5t66.5 86.5q-23 72 -38.5 133t-15.5 103q0 48 10 87.5t25.5 67.5t34 43.5t35.5 15.5q23 0 39.5 -30t16.5 -96q0 -84 -15.5 -156t-41.5 -132q13 -60 29 -123t30.5 -122.5t24.5 -113.5t10 -97q0 -96 -26.5 -175.5t-67.5 -135.5
t-91 -87t-97 -31q-32 0 -60 15t-49 46t-33 79.5t-12 115.5zM498 -287q0 33 -6.5 73t-18 84t-25.5 90.5t-29 93.5q-57 -54 -90.5 -105t-51.5 -102t-23.5 -102.5t-5.5 -106.5q0 -46 8.5 -79.5t23 -56t33 -33.5t39.5 -11q26 0 52 16.5t47 49t34 80t13 109.5zM413 368
q0 -58 12 -124q22 57 35 122t13 132q0 40 -4 57.5t-10 17.5q-7 0 -15 -18t-15 -47t-11.5 -66t-4.5 -74z" />
    <glyph glyph-name="Z" unicode="Z" horiz-adv-x="551" 
d="M13 -436q0 72 30 146t77 144.5t104 133.5t111 112q-20 32 -45.5 57.5t-57.5 41.5q-38 -25 -74 -39.5t-65 -14.5q-38 0 -55.5 11t-17.5 25q0 20 31.5 39.5t89.5 19.5q32 0 62 -6q36 33 69.5 78.5t59 95t41 100t15.5 93.5q0 28 -7.5 51.5t-23 40.5t-40.5 26.5t-61 9.5
q-27 0 -54 -10t-48 -31.5t-34 -55t-13 -79.5q0 -17 6 -30q-19 -25 -40 -36.5t-39 -11.5q-22 0 -36 14.5t-14 40.5q0 64 38 114t96.5 85t128.5 53.5t135 18.5q51 0 87 -10t58.5 -27.5t33 -41.5t10.5 -53q0 -51 -27.5 -113t-72 -123.5t-100 -118t-112.5 -97.5q57 -25 96 -73
t63 -107t34 -124.5t10 -126.5q0 -109 -28 -197t-71 -149.5t-95 -95t-101 -33.5q-32 0 -60 15t-49 45.5t-33 78.5t-12 114zM421 -240q0 35 -4 76t-13 84t-24 85.5t-36 79.5q-59 -56 -94 -111.5t-53 -111.5t-23.5 -112t-5.5 -112q0 -45 8.5 -79.5t22.5 -57t33 -34t39 -11.5
q26 0 53 19t48.5 57t35 95t13.5 133zM78 170q24 0 51 12t54 34q-24 6 -52 6q-14 0 -29.5 -4t-28 -10t-20.5 -13t-8 -13q0 -5 7.5 -8.5t25.5 -3.5z" />
    <glyph glyph-name="bracketleft" unicode="[" horiz-adv-x="246" 
d="M116 -94q1 -6 2 -7t5 -1q19 0 32 1t22 1q20 0 24.5 -9t5.5 -41h-150q-13 0 -13 16v971q0 16 13 16h150q-1 -32 -5.5 -41t-24.5 -9q-9 0 -22 1t-32 1q-4 0 -5 -1t-2 -7v-892v1z" />
    <glyph glyph-name="backslash" unicode="\" horiz-adv-x="319" 
d="M282 -225q-5 -5 -13 -5t-16.5 5t-11.5 13l-366 1095q-3 7 -3 16q0 11 6 18t19 7z" />
    <glyph glyph-name="bracketright" unicode="]" horiz-adv-x="246" 
d="M63 797q-1 6 -2 7t-5 1q-19 0 -32 -1t-22 -1q-20 0 -24.5 9t-5.5 41h150q13 0 13 -16v-971q0 -16 -13 -16h-150q1 32 5.5 41t24.5 9q9 0 22 -1t32 -1q4 0 5 1t2 7v892v-1z" />
    <glyph glyph-name="underscore" unicode="_" horiz-adv-x="576" 
d="M497 -13q8 0 13 -3.5t5 -8.5q0 -7 -9.5 -13t-31.5 -6h-522q-14 0 -14 10q0 7 7.5 14t18.5 7h533z" />
    <glyph glyph-name="grave" unicode="`" horiz-adv-x="273" 
d="M116 501q5 -16 10.5 -31t17.5 -29t34 -27.5t59 -26.5q0 -3 -3.5 -9.5t-16.5 -6.5q-29 0 -58.5 6.5t-53 17t-38.5 24t-15 28.5q0 14 14.5 30t49.5 24z" />
    <glyph glyph-name="a" unicode="a" horiz-adv-x="506" 
d="M129 27q45 0 80 27q-13 23 -19.5 49t-6.5 51q0 39 18 67t59 28q25 0 37 -16t12 -41q0 -26 -12 -57.5t-35 -60.5q8 -23 20.5 -37.5t31.5 -14.5q32 0 71 31.5t80 93.5q10 15 18 31l16 32l19 -5q-7 -15 -15 -30.5t-18 -30.5q-47 -72 -96.5 -112.5t-90.5 -40.5
q-23 0 -41.5 11.5t-33.5 29.5q-29 -24 -66.5 -39.5t-82.5 -15.5q-65 0 -95 32.5t-30 78.5q0 37 17.5 76.5t50 72.5t78 54t102.5 21q32 0 49 -10.5t17 -21.5q0 -8 -10 -15t-32 -9q-7 23 -22.5 28.5t-32.5 5.5q-23 0 -41 -15t-31 -39t-19.5 -53.5t-6.5 -57.5q0 -40 14.5 -69
t46.5 -29zM248 168q0 -33 6 -64q17 26 25 52.5t8 46.5q0 16 -4.5 25.5t-15.5 9.5q-9 0 -14 -20.5t-5 -49.5z" />
    <glyph glyph-name="b" unicode="b" horiz-adv-x="493" 
d="M292 698q0 -42 -18 -98.5t-48 -115t-69.5 -113.5t-83.5 -92q1 -53 7.5 -100.5t18 -83t28 -56.5t39.5 -21q24 0 45 18.5t38 47.5q-35 29 -57 70.5t-22 78.5q0 35 23.5 54.5t51.5 19.5t51 -21t23 -67q0 -52 -25 -110q33 -30 69 -30q53 0 89 68l34 63l19 -5l-33 -61
q-23 -42 -57.5 -68t-76.5 -26q-16 0 -32 4t-33 14q-24 -40 -57.5 -67t-73.5 -27q-48 0 -82.5 23t-56.5 63t-32.5 93t-10.5 112q0 57 9 117t26 116t41.5 106.5t55 87.5t67 59t76.5 22q30 0 43.5 -20.5t13.5 -54.5zM73 303q36 37 71 89t62.5 106.5t44 106t16.5 87.5
q0 26 -9.5 40.5t-31.5 14.5q-25 0 -46 -18.5t-38 -51t-30 -75.5t-21.5 -92.5t-13 -102t-4.5 -103.5v-1zM216 248q0 -23 16 -55.5t40 -60.5q8 23 13 46.5t5 43.5q0 32 -14.5 47.5t-30.5 15.5q-12 0 -20.5 -9t-8.5 -28z" />
    <glyph glyph-name="c" unicode="c" horiz-adv-x="412" 
d="M371 147q10 15 18 31l16 32l19 -5q-7 -15 -15 -30.5t-18 -30.5q-24 -38 -58.5 -68.5t-74.5 -51.5t-82.5 -32.5t-81.5 -11.5q-38 0 -65.5 9.5t-45 26t-26 38.5t-8.5 46q0 36 17 74.5t48.5 70t75 52t97.5 20.5q18 0 33.5 -6t26.5 -15t17 -19.5t6 -20.5q0 -11 -9.5 -19
t-29.5 -8h-8t-9 1q-3 35 -15.5 49.5t-28.5 14.5q-24 0 -42.5 -13t-31 -34.5t-19.5 -48t-7 -53.5q0 -24 5.5 -45.5t17 -38.5t29 -27t42.5 -10q27 0 56.5 10t57.5 27t52.5 39t40.5 47z" />
    <glyph glyph-name="d" unicode="d" horiz-adv-x="550" 
d="M77 -24q-65 0 -96.5 32.5t-31.5 78.5t16.5 81.5t43 62.5t60 45t68.5 28q-11 54 -17 109t-6 106q0 66 15.5 118t40.5 87.5t56.5 54.5t62.5 19q26 0 50 -13.5t42.5 -42t29.5 -72.5t11 -104q0 -62 -10.5 -130.5t-31.5 -135.5t-51.5 -127t-70.5 -105q16 -34 37.5 -53
t50.5 -19q28 0 51.5 15t44 37.5t37 49t30.5 49.5q19 32 34 63l19 -5q-7 -15 -16 -30t-17 -31q-12 -23 -30 -53t-42 -57t-52.5 -45.5t-59.5 -18.5t-59 19.5t-52 54.5q-34 -32 -73 -50t-84 -18zM214 298q2 -60 11 -114t25 -96q36 40 63.5 99t47 126t29.5 136.5t10 129.5
q0 78 -17.5 116t-42.5 38q-21 0 -43 -24.5t-41 -73t-31 -119.5t-12 -164v-35q5 1 15 1q36 0 59.5 -9.5t23.5 -28.5q0 -8 -10 -15t-32 -9q-7 21 -22.5 31t-32.5 11zM223 62q-26 43 -46.5 98t-34.5 117q-18 -12 -31.5 -30.5t-22.5 -39.5t-13.5 -43.5t-4.5 -42.5q0 -38 16 -66
t47 -28q24 0 46.5 9t43.5 26z" />
    <glyph glyph-name="e" unicode="e" 
d="M167 24q27 0 53.5 10t51 27t45.5 39t37 47q10 15 18 31l16 32l19 -5q-7 -15 -15 -30.5t-18 -30.5q-24 -38 -55.5 -68.5t-67.5 -51.5t-75.5 -32.5t-78.5 -11.5q-41 0 -69.5 8.5t-46.5 23t-26 34t-8 41.5q0 38 20 79.5t51.5 76.5t70.5 57.5t77 22.5t54.5 -17.5t16.5 -43.5
q0 -25 -13 -53.5t-36 -52.5t-53.5 -40t-64.5 -16q9 -32 32 -54t65 -22zM166 262q0 13 -5 21t-16 8q-18 0 -32.5 -12.5t-25.5 -32.5t-17 -45.5t-6 -51.5q0 -19 3 -35q18 0 35.5 16t32 39t23 48.5t8.5 44.5z" />
    <glyph glyph-name="f" unicode="f" horiz-adv-x="252" 
d="M-23 325q-1 45 -2.5 88t-1.5 84q0 90 19.5 157t49.5 112t65.5 67t67.5 22q38 0 63.5 -29.5t25.5 -89.5q0 -22 -6 -44.5t-16.5 -41t-25 -30.5t-32.5 -12q-13 0 -26.5 6.5t-28.5 22.5q8 4 15 15t12 25.5t8 31.5t3 33q0 26 -8 44.5t-26 18.5t-39 -16.5t-39 -46t-30.5 -70.5
t-12.5 -89q0 -63 14 -127.5t31 -130.5h139q13 0 22.5 -4.5t9.5 -12.5t-9 -14h-154q15 -59 26.5 -117.5t11.5 -117.5q0 -42 -11.5 -74t-30.5 -53.5t-43 -33t-48 -11.5q-14 0 -31 5q24 70 32 152t8 168v41t-1 41h-91q-21 0 -29.5 3.5t-8.5 8.5q0 7 15 19h113z" />
    <glyph glyph-name="g" unicode="g" horiz-adv-x="478" 
d="M132 59q23 0 46 12q-5 26 -7.5 52t-2.5 52q0 13 7.5 25.5t19.5 21.5t27.5 14.5t31.5 5.5q9 0 18.5 -1.5t17.5 -6.5q-3 -56 -39 -115q2 -41 8.5 -81.5t15.5 -80.5q45 48 87.5 95t74.5 95q10 15 18 31l16 32l19 -5q-7 -15 -15.5 -30.5t-17.5 -30.5q-32 -53 -80.5 -106.5
t-95.5 -108.5q12 -51 25.5 -101.5t24.5 -100.5t18.5 -99.5t7.5 -97.5t-16 -84.5t-41.5 -61t-58 -37t-65.5 -12.5q-31 0 -59.5 10.5t-51 31.5t-36 53t-13.5 74q0 57 17.5 110t46.5 102.5t66.5 95.5t78.5 91l-22 70t-19 70q-25 -20 -53 -32t-58 -12q-31 0 -54.5 9.5t-39 25.5
t-23 37t-7.5 45q0 34 16.5 70.5t49 66t81.5 48.5t115 19q36 0 53.5 -10.5t17.5 -21.5q0 -8 -13 -17t-29 -11q-3 18 -16 30.5t-38 12.5q-27 0 -48.5 -15t-36.5 -38.5t-23.5 -52t-8.5 -55.5q0 -35 15 -59t48 -24zM319 -467q0 80 -25.5 165.5t-57.5 173.5q-39 -52 -65 -106
t-26 -112q0 -44 12.5 -82.5t31 -67t40.5 -45t41 -16.5q21 0 35 21t14 69z" />
    <glyph glyph-name="h" unicode="h" horiz-adv-x="502" 
d="M47 44q11 18 22 41t21.5 47.5t19 48t15.5 42.5q8 23 32 34t51 11q25 0 46 -9q0 -8 -0.5 -15.5t-0.5 -15.5q0 -92 23 -136.5t59 -44.5q58 0 126 100q10 15 18 31l16 32l19 -5q-7 -15 -15 -30.5t-18 -30.5q-46 -71 -104 -114t-111 -43q-25 0 -46.5 11t-38.5 34.5t-28.5 60
t-14.5 88.5q-16 -41 -29 -70.5t-26 -52.5t-25.5 -41.5t-27.5 -36.5q-8 -4 -16 -7q-7 -2 -15 -4t-16 -2q-11 0 -17 6q7 46 9.5 106t4 126t4 135t8 134t16.5 122t30 100t47.5 68t70.5 25q18 0 35.5 -7t31 -20t22 -32.5t8.5 -43.5q0 -33 -12 -75.5t-31 -89t-42.5 -93.5t-47 -89
t-44.5 -76t-34 -55q2 -45 2.5 -87t2.5 -77zM33 500q0 -17 0.5 -44t1.5 -61t2.5 -72t2.5 -78q16 31 34.5 80.5t34.5 104t26 108.5t10 95q0 51 -8 72.5t-21 21.5q-12 0 -26.5 -19t-27 -50.5t-21 -72.5t-8.5 -85z" />
    <glyph glyph-name="i" unicode="i" horiz-adv-x="301" 
d="M313 205q-7 -15 -15.5 -30t-17.5 -31q-42 -75 -98.5 -116.5t-107.5 -41.5q-26 0 -49 11.5t-40 35.5t-26.5 61.5t-9.5 88.5q0 17 8.5 30t22 21.5t29.5 13t31 4.5q22 0 34 -9q-2 -18 -3.5 -35.5t-1.5 -33.5q0 -60 16.5 -97t48.5 -37q24 0 55.5 25t70.5 82q10 15 18 31
l16 32zM73 435q0 -26 -19.5 -40t-42.5 -14q-20 0 -35 10.5t-15 33.5q0 26 19.5 40t42.5 14q20 0 35 -10.5t15 -33.5z" />
    <glyph glyph-name="j" unicode="j" horiz-adv-x="250" 
d="M94 435q0 -26 -19.5 -40t-42.5 -14q-20 0 -35 10.5t-15 33.5q0 26 19.5 40t42.5 14q20 0 35 -10.5t15 -33.5zM99 -467q0 40 -7 82.5t-18 86t-25 88t-28 89.5q-41 -54 -68.5 -109.5t-27.5 -115.5q0 -44 12.5 -82.5t31 -67t40.5 -45t41 -16.5q21 0 35 21t14 69zM84 243
q-1 -17 -1.5 -34.5t-0.5 -34.5q0 -44 2.5 -88.5t7.5 -89.5q35 38 67 75.5t58 75.5q10 15 18 31l16 32l19 -5q-7 -15 -15.5 -30.5t-17.5 -30.5q-27 -45 -64.5 -88.5t-77.5 -88.5q12 -113 27 -224t15 -213q0 -48 -16 -84.5t-41.5 -61t-58 -37t-65.5 -12.5q-31 0 -59.5 10.5
t-51 31.5t-36 53t-13.5 74q0 58 18 112t48 104t69 97.5t81 92.5q-21 70 -37 138.5t-16 134.5q0 17 8.5 30t22 21.5t29.5 13t31 4.5q22 0 34 -9z" />
    <glyph glyph-name="k" unicode="k" horiz-adv-x="519" 
d="M161 119q3 -30 12 -51q33 14 49 42t16 55q0 23 -11.5 40.5t-33.5 17.5q-21 0 -45.5 -20.5t-46 -54t-36.5 -77.5t-18 -91q-12 -4 -23 -7q-10 -2 -21.5 -4t-21.5 -2q-15 0 -21 6q7 46 9.5 106t4 126t4 135t8 134t16.5 122t30 100t47.5 68t70.5 25q18 0 35.5 -7t31 -20
t22 -32.5t8.5 -43.5q0 -33 -12 -76t-31 -89t-43 -93t-47.5 -89.5t-44.5 -76.5t-34 -55l5 -144q22 64 54 114q13 21 30.5 41.5t38 36.5t45 26t52.5 10q60 0 86.5 -22.5t26.5 -54.5q0 -24 -14 -50.5t-39 -50t-60 -41t-77 -24.5q14 -20 32.5 -28t41.5 -8q30 0 63 13t64 33.5
t55.5 44t38.5 44.5q10 15 18 31l16 32l19 -5q-7 -15 -15 -30.5t-18 -30.5q-27 -39 -58.5 -71.5t-66 -55.5t-69.5 -35.5t-69 -12.5t-61 7.5t-45.5 19.5t-28.5 27t-10 30q0 20 17 37.5t54 28.5zM27 500q0 -18 0.5 -45.5t1.5 -61t2 -72t3 -77.5q16 31 34.5 80.5t34 104
t26 108.5t10.5 96q0 51 -8 72.5t-21 21.5q-12 0 -26.5 -19t-27 -50.5t-21 -72.5t-8.5 -85z" />
    <glyph glyph-name="l" unicode="l" horiz-adv-x="308" 
d="M216 680q0 -68 -35.5 -173t-113.5 -245q2 -49 7 -91t14 -72.5t22.5 -48t32.5 -17.5q22 0 52 26.5t72 87.5q10 15 18 31l16 32l19 -5q-7 -15 -15 -30.5t-18 -30.5q-57 -84 -109 -124t-95 -40q-61 0 -97.5 76.5t-36.5 222.5q0 57 8.5 117.5t23.5 118t35.5 108t43.5 88.5
t48 60t49 22q26 0 42.5 -28.5t16.5 -84.5zM65 386v-46t1 -45q65 120 91 213t26 155q0 52 -8.5 71.5t-28.5 19.5q-18 0 -33 -32t-25.5 -84.5t-16.5 -118.5t-6 -133z" />
    <glyph glyph-name="m" unicode="m" horiz-adv-x="718" 
d="M261 -9q-16 -20 -30 -20q-15 0 -27 17t-21.5 44.5t-15.5 61t-8 66.5q-9 -25 -18.5 -53t-18.5 -53.5t-17 -45.5t-14 -28q-5 -2 -9 -3q-9 -3 -21 -3q-24 0 -44 25.5t-34.5 59.5t-22.5 69t-8 55q0 19 6 38t18 35t31 26t46 10q10 0 21.5 -1.5t23.5 -5.5q-15 -61 -20 -114.5
t-5 -91.5v-15t1 -20.5t2 -18t4 -7.5q1 0 4 5q10 19 20 44t19 50.5t18 50.5t18 45q2 36 13 55.5t30 19.5q27 0 66 -39q-3 -12 -5.5 -36t-4.5 -51.5t-3 -54.5t-1 -46q0 -27 2 -27l10 28q15 42 25.5 79.5t25.5 65.5t39.5 44.5t67.5 16.5q25 0 46 -9q0 -8 -0.5 -15.5t-0.5 -15.5
q0 -92 23 -136.5t59 -44.5q58 0 126 100q10 15 18 31l16 32l19 -5q-7 -15 -15 -30.5t-18 -30.5q-44 -68 -100 -108.5t-107 -40.5q-26 0 -49.5 12t-41.5 37.5t-30.5 66t-16.5 97.5q-15 -20 -27.5 -52t-23.5 -65t-21 -60.5t-19 -39.5z" />
    <glyph glyph-name="n" unicode="n" horiz-adv-x="563" 
d="M101 74q13 38 26.5 73t32 62t44.5 43t65 16q25 0 46 -9q0 -8 -0.5 -15.5t-0.5 -15.5q0 -92 23 -136.5t59 -44.5q58 0 126 100q10 15 18 31l16 32l19 -5q-7 -15 -15 -30.5t-18 -30.5q-44 -68 -100 -108.5t-107 -40.5q-26 0 -49.5 12t-41.5 37.5t-30.5 66t-16.5 97.5
q-18 -16 -33 -49.5t-28.5 -69t-24.5 -66.5t-20 -43q-5 -2 -9 -3q-9 -3 -21 -3q-24 0 -44 25.5t-34.5 59.5t-22.5 69t-8 55q0 19 6 38t18 35t31 26t46 10q10 0 21.5 -1.5t23.5 -5.5q-15 -61 -20 -114.5t-5 -91.5q0 -29 2 -41t5 -12q2 0 5 5t5.5 12.5t5.5 16t5 14.5z" />
    <glyph glyph-name="o" unicode="o" 
d="M-51 94q0 38 16 76.5t55 67.5q-1 6 -1.5 12.5t-0.5 12.5q0 32 23 51t55 19q24 0 50.5 -12.5t49 -37t37 -61.5t14.5 -86q0 -17 -3 -32q40 4 77.5 28.5t66.5 77.5l19 -5q-33 -62 -77 -90t-90 -32q-8 -27 -24 -47.5t-37 -34t-45.5 -20t-48.5 -6.5q-26 0 -50.5 7.5
t-43.5 22.5t-30.5 37.5t-11.5 51.5zM105 264q-16 -17 -23.5 -37t-11.5 -40q24 -34 62.5 -57t82.5 -27v11q0 36 -17 68.5t-41 57t-50 38.5t-43 14q-22 0 -22 -21v-9t1 -9q21 12 48 21zM212 83q-42 3 -79.5 22t-65.5 48v-25q0 -24 7.5 -43t19 -32t26.5 -20t30 -7q20 0 37.5 14
t24.5 43z" />
    <glyph glyph-name="p" unicode="p" horiz-adv-x="512" 
d="M-176 -343q0 49 11.5 104t32 110.5t50 109t65.5 101.5q-8 36 -12.5 74.5t-4.5 82.5q0 42 21 66t52 24q19 0 35 -8q-6 -53 -6 -102v-21t1 -20q53 48 111.5 76.5t121.5 28.5q59 0 84.5 -22.5t25.5 -56.5q0 -32 -20 -69t-53.5 -68.5t-77 -52.5t-90.5 -21q-27 0 -47.5 6.5
t-20.5 18.5q0 11 24 27q13 -19 29.5 -27.5t34.5 -8.5q22 0 40 13t30.5 33t19 44.5t6.5 47.5q0 33 -14.5 57t-46.5 24q-45 0 -84.5 -19.5t-71.5 -52.5q4 -61 13 -119.5t18 -118.5t16 -123t7 -133q0 -59 -11.5 -101t-30.5 -69t-43.5 -39.5t-50.5 -12.5q-30 0 -59 15
t-52.5 43.5t-38 68.5t-14.5 90zM96 -398q0 66 -11 122.5t-27 109t-34 103t-32 105.5q-31 -63 -47 -132t-16 -131q0 -58 12.5 -104t31.5 -77.5t41 -48.5t40 -17t30 17t12 53z" />
    <glyph glyph-name="q" unicode="q" horiz-adv-x="506" 
d="M141 27q17 101 45 160.5t69 59.5q24 0 53 -24q0 -28 -13 -61.5t-36 -65.5q-26 -76 -50 -168q31 10 67 32.5t70.5 51.5t65.5 64t53 71q19 32 34 63l19 -5q-7 -15 -15.5 -30.5t-17.5 -30.5q-52 -86 -115.5 -152t-132.5 -105q37 -22 65.5 -60t48 -83.5t30 -94.5t10.5 -94
q0 -48 -10 -84.5t-26.5 -61t-38 -37.5t-44.5 -13q-28 0 -55.5 18.5t-49.5 57.5t-36 98.5t-14 140.5q0 88 4.5 168t13.5 148q-15 -6 -30 -9.5t-31 -3.5q-65 0 -95 32.5t-30 78.5q0 37 17.5 76.5t50 72.5t78 54t102.5 21q32 0 49 -10.5t17 -21.5q0 -8 -10 -15t-32 -9
q-7 23 -22.5 28.5t-32.5 5.5q-23 0 -41 -15t-31 -39t-19.5 -53.5t-6.5 -57.5q0 -40 14.5 -69t46.5 -29h12zM294 -358q0 38 -5 74.5t-16 66.5t-30.5 52.5t-47.5 31.5q-13 -58 -20.5 -115t-7.5 -111q0 -94 20.5 -143t45.5 -49q23 0 42 46.5t19 146.5z" />
    <glyph glyph-name="r" unicode="r" horiz-adv-x="364" 
d="M323 147q10 15 18 31l16 32l19 -5q-7 -15 -16 -30t-17 -31q-45 -85 -96.5 -127t-93.5 -42q-36 0 -59.5 31t-23.5 93q0 56 24 139q-11 -13 -26.5 -24t-33.5 -19.5t-37 -13t-35 -4.5q-23 0 -39 10.5t-16 34.5q0 17 6.5 41t20.5 58q10 -20 45.5 -27t77.5 -7q28 0 54 1.5
t43 3.5q2 0 4.5 -5t2.5 -10q-21 -51 -21 -91q0 -49 24.5 -77t59.5 -28q25 0 51 15.5t48 50.5z" />
    <glyph glyph-name="s" unicode="s" horiz-adv-x="403" 
d="M16 -34q-22 0 -40 5t-31 13.5t-20.5 18.5t-7.5 20q0 14 13.5 25t43.5 17q8 -23 24.5 -34.5t34.5 -11.5q23 0 40.5 16t17.5 46q0 19 -9.5 32.5t-24 23.5t-31.5 18t-31.5 17.5t-24 21.5t-9.5 29q0 23 17.5 42.5t44 33t58.5 21t61 7.5q34 0 57 -11t23 -36q0 -11 -12.5 -20
t-41.5 -13q-8 22 -31 33t-47 11q-23 0 -41 -10.5t-18 -33.5q0 -11 11.5 -19.5t30 -17t41 -17t44.5 -17.5q73 -32 73 -76q0 -46 -71 -88q42 12 81 31q33 17 67.5 42.5t54.5 63.5l33 61l19 -5l-32 -60q-23 -43 -64 -76t-91.5 -56t-105.5 -35t-106 -12z" />
    <glyph glyph-name="t" unicode="t" horiz-adv-x="308" 
d="M-15 514q15 49 35 91.5t42.5 73.5t46.5 48.5t48 17.5q26 0 38 -21t12 -56q0 -32 -8 -71t-22 -83h157q13 0 22.5 -4.5t9.5 -12.5t-9 -14h-191q-19 -54 -44.5 -108t-54.5 -102q2 -51 6.5 -95t13.5 -76t22.5 -50.5t33.5 -18.5q22 0 52 26.5t72 87.5q10 15 18 31l16 32l19 -5
q-7 -15 -15 -30.5t-18 -30.5q-57 -84 -109 -124t-95 -40q-61 0 -97.5 76.5t-36.5 222.5q0 52 7 104t20 100h-104q-21 0 -29.5 3.5t-8.5 8.5q0 7 15 19h136zM146 706q-14 0 -25.5 -14t-21.5 -39.5t-17 -60.5t-11 -78h80q11 39 17.5 74.5t6.5 61.5t-7 41t-22 15zM65 386v-40
t1 -39q22 40 41.5 85.5t33.5 90.5h-73q-3 -47 -3 -97z" />
    <glyph glyph-name="u" unicode="u" horiz-adv-x="533" 
d="M545 205q-7 -15 -15.5 -30t-17.5 -31q-41 -72 -94.5 -110.5t-103.5 -38.5q-42 0 -75 27.5t-48 85.5q-9 -36 -23.5 -61t-31.5 -40.5t-36 -22t-37 -6.5q-22 0 -42.5 17t-36 43.5t-25 58.5t-9.5 63q0 21 5 39.5t15.5 32.5t28 22t41.5 8q13 0 30 -3q-2 -18 -3.5 -35.5
t-1.5 -33.5q0 -31 3 -59.5t9.5 -50.5t17 -35.5t24.5 -13.5q19 0 37.5 42.5t23.5 114.5v14q0 17 8.5 30t22 21.5t29.5 13t31 4.5q22 0 34 -9q-2 -18 -3.5 -35.5t-1.5 -33.5q0 -31 5 -57.5t14 -46t22.5 -31t30.5 -11.5q23 0 53.5 23t66.5 77q10 15 18 31l16 32z" />
    <glyph glyph-name="v" unicode="v" horiz-adv-x="462" 
d="M135 18q24 0 45 18.5t38 47.5q-35 29 -57 70.5t-22 78.5q0 35 23.5 54.5t51.5 19.5t51 -21t23 -67q0 -52 -25 -110q33 -30 69 -30q53 0 89 68l34 63l19 -5l-33 -61q-23 -42 -57.5 -68t-76.5 -26q-16 0 -32 4t-33 14q-24 -40 -57.5 -67t-73.5 -27q-39 0 -69.5 17.5
t-50.5 49t-30.5 75t-10.5 94.5q0 17 8.5 30t22 21.5t29.5 13t31 4.5q22 0 34 -9q-2 -18 -3.5 -35.5t-1.5 -33.5q0 -30 4 -62t12.5 -59t20.5 -44.5t28 -17.5zM185 248q0 -23 16 -55.5t40 -60.5q8 23 13 46.5t5 43.5q0 32 -14.5 47.5t-30.5 15.5q-12 0 -20.5 -9t-8.5 -28z" />
    <glyph glyph-name="w" unicode="w" horiz-adv-x="614" 
d="M107 18q17 0 31 7.5t26 20.5q-10 23 -14.5 48t-4.5 51q0 22 3.5 42.5t9.5 36.5t15 25t20 9q20 0 30 -19.5t10 -48.5q0 -26 -7 -55.5t-20 -58.5q9 -25 28 -41.5t53 -16.5q23 0 44 17.5t38 45.5q-37 27 -57.5 68.5t-20.5 79.5q0 33 18 55.5t57 22.5q28 0 51 -21t23 -67
q0 -55 -26 -113q30 -27 70 -27q53 0 89 68l34 63l19 -5l-33 -61q-23 -42 -57.5 -68t-76.5 -26q-34 0 -66 16q-24 -39 -57.5 -65.5t-72.5 -26.5q-31 0 -52.5 14t-35.5 37q-19 -23 -42 -37t-50 -14q-28 0 -52 19t-42 48t-28 65t-10 70q0 23 5.5 44t17 36.5t29.5 24.5t44 9
q9 0 19 -1.5t21 -3.5q-9 -39 -14 -80.5t-5 -78.5q0 -46 9 -77t30 -31zM349 251q0 -25 10.5 -59t32.5 -62q9 24 14 48t5 44q0 32 -14.5 47.5t-30.5 15.5q-8 0 -12.5 -9.5t-4.5 -24.5z" />
    <glyph glyph-name="x" unicode="x" horiz-adv-x="411" 
d="M225 284q13 -7 13 -15q0 -6 -7 -13q-21 -20 -56.5 -56t-75.5 -78q20 -32 52.5 -51.5t70.5 -19.5q37 0 75 22t73 74q10 15 18 31l16 32l19 -5q-7 -15 -15.5 -30t-17.5 -31q-41 -73 -104.5 -109t-128.5 -36q-37 0 -71 11.5t-62 34.5q-43 -45 -75.5 -77.5t-39.5 -37.5
q-4 0 -6 4t-2 9t2 7q4 5 33.5 36t71.5 74q-26 29 -41.5 69.5t-15.5 94.5q0 17 8.5 30t22 21.5t29.5 13t31 4.5q22 0 34 -9q-2 -18 -3.5 -35.5t-1.5 -33.5q0 -38 16 -73z" />
    <glyph glyph-name="y" unicode="y" horiz-adv-x="482" 
d="M303 263q-1 -16 -1.5 -32t-0.5 -33q0 -50 3.5 -101t9.5 -103q35 38 68 76t59 77q10 15 18 31l16 32l19 -5q-7 -15 -15.5 -30.5t-17.5 -30.5q-27 -45 -65 -89.5t-79 -89.5q14 -114 29 -225t15 -210q0 -48 -16 -84.5t-41.5 -61t-58 -37t-65.5 -12.5q-31 0 -59.5 10.5
t-51 31.5t-36 53t-13.5 74q0 58 18 112t48 104t69 97.5t81 92.5q-15 48 -27.5 95t-20.5 93q-9 -33 -23 -56t-31 -37.5t-35.5 -20.5t-35.5 -6q-22 0 -42.5 17t-36 43.5t-25 58.5t-9.5 63q0 21 5 39.5t15.5 32.5t28 22t41.5 8q13 0 30 -3q-2 -18 -3.5 -35.5t-1.5 -33.5
q0 -31 3 -59.5t9.5 -50.5t17 -35.5t24.5 -13.5q17 0 35 37.5t25 102.5q-1 8 -1 16v16q0 17 8.5 30t22 21.5t29.5 13t31 4.5q22 0 34 -9zM323 -467q0 78 -24.5 166.5t-53.5 180.5q-42 -54 -69 -110t-27 -116q0 -44 12.5 -82.5t31 -67t40.5 -45t41 -16.5q21 0 35 21t14 69z
" />
    <glyph glyph-name="z" unicode="z" horiz-adv-x="403" 
d="M146 96q29 30 53.5 68.5t39.5 78.5q-19 -12 -51 -24t-65.5 -21t-63.5 -15t-45 -6q-23 0 -39 10.5t-16 34.5q0 17 6.5 41t20.5 58q5 -11 22 -18t41 -11t52.5 -5.5t56.5 -1.5q32 0 59.5 1t43.5 3q2 0 4.5 -5t2.5 -10q-17 -61 -45 -108t-61 -80q42 -30 68 -85q39 36 73 72.5
t59 73.5q10 15 18 31l16 32l19 -5q-7 -15 -15.5 -30.5t-17.5 -30.5q-24 -39 -62 -79t-83 -82q17 -42 24.5 -90.5t7.5 -102.5q0 -80 -17 -161.5t-49 -146.5t-78 -106t-104 -41q-31 0 -59.5 10.5t-51 31.5t-36 53t-13.5 74q0 69 32 132t81.5 121.5t110.5 113t120 108.5
q-11 28 -27 50.5t-38 37.5q-31 -27 -60.5 -40.5t-52.5 -13.5q-27 0 -39 9t-12 23q0 11 7.5 23.5t20.5 22.5t30.5 16.5t37.5 6.5q21 0 39 -5t35 -13zM236 -210q0 46 -6 89t-18 81q-41 -38 -80.5 -76.5t-71 -76.5t-51 -76.5t-19.5 -76.5q0 -44 12.5 -82.5t31 -67t40.5 -45
t41 -16.5q24 0 46 30.5t38.5 79.5t26.5 111.5t10 125.5zM32 29q21 0 45 12.5t48 34.5q-28 14 -62 14q-24 0 -37.5 -14.5t-13.5 -28.5q0 -8 5 -13t15 -5z" />
    <glyph glyph-name="braceleft" unicode="{" horiz-adv-x="277" 
d="M23 327q22 5 37 21t23.5 40t12 54t3.5 63q0 39 -3.5 80t-7.5 80t-7.5 73t-3.5 58q0 18 8 33.5t20.5 26t29 16.5t33.5 6q16 0 30.5 -5.5t26 -18t18.5 -32t7 -47.5q-9 1 -18 1.5t-17 0.5q-20 0 -35.5 -5t-26 -18t-16 -36t-5.5 -58q0 -30 3.5 -73t3.5 -89q0 -32 -3.5 -63
t-12.5 -57.5t-25 -47.5t-42 -32q26 -11 42 -32t25 -47.5t12.5 -57.5t3.5 -63q0 -46 -3.5 -89t-3.5 -73q0 -35 5.5 -58t16 -36t26 -18t35.5 -5q8 0 17 0.5t18 1.5q0 -56 -25 -80t-56 -24q-17 0 -33.5 6t-29.5 17.5t-21 27t-8 33.5q0 24 3.5 58.5t7.5 73.5t7.5 80.5t3.5 80.5
q0 33 -3.5 63t-12 53.5t-23.5 39t-37 19.5q-5 2 -14.5 13t-9.5 23q0 7 5 13t19 9z" />
    <glyph glyph-name="bar" unicode="|" horiz-adv-x="272" 
d="M62 854l12 8q5 3 10.5 6t10.5 3q11 0 11 -17v-1004q-6 -8 -12 -13q-5 -5 -10.5 -8.5t-10.5 -3.5t-8 5.5t-3 19.5v1004z" />
    <glyph glyph-name="braceright" unicode="}" horiz-adv-x="277" 
d="M183 265q-23 -5 -37.5 -21t-23 -40t-12 -54t-3.5 -63q0 -39 3.5 -80t7.5 -80t7.5 -73t3.5 -58q0 -18 -8 -33.5t-20.5 -26t-29 -16.5t-33.5 -6q-16 0 -30.5 5.5t-26 18t-18.5 32t-7 47.5q9 -1 18 -1.5t17 -0.5q20 0 35.5 5t26 18t16 36t5.5 58q0 30 -3.5 73t-3.5 89
q0 32 3.5 63t12.5 57.5t25 47.5t42 32q-26 11 -42 32t-25 47.5t-12.5 57.5t-3.5 63q0 46 3.5 89t3.5 73q0 35 -5.5 58t-16 36t-26 18t-35.5 5q-8 0 -17 -0.5t-18 -1.5q0 56 25 80t56 24q17 0 33.5 -6t29.5 -17.5t21 -27t8 -33.5q0 -24 -3.5 -58.5t-7.5 -73.5t-7.5 -80.5
t-3.5 -80.5q0 -33 3.5 -63t12 -53.5t23 -39t37.5 -19.5q5 -2 14.5 -13t9.5 -23q0 -7 -5 -13t-19 -9z" />
    <glyph glyph-name="exclamdown" unicode="&#xa1;" horiz-adv-x="274" 
d="M38 -377q11 41 20.5 99.5t16.5 124.5t12.5 134t9 128.5t5.5 108.5t3 73q0 4 6 7t14 3q6 0 11.5 -2.5t5.5 -10.5q0 -11 3.5 -41.5t8 -74t10 -97.5t10 -113t7.5 -119.5t3 -117.5q0 -19 -6 -38.5t-18 -35t-31 -25.5t-46 -10q-10 0 -21.5 1.5t-23.5 5.5zM69 384q0 26 19.5 40
t42.5 14q20 0 35 -10.5t15 -33.5q0 -26 -19.5 -40t-42.5 -14q-20 0 -35 10.5t-15 33.5z" />
    <glyph glyph-name="cent" unicode="&#xa2;" horiz-adv-x="412" 
d="M303 240q0 -20 -10 -36.5t-27 -28.5t-39.5 -20t-47.5 -11v-162q-10 -5 -18 -5t-13 4.5t-5 14.5v147q-32 1 -62.5 9.5t-54.5 26t-39 44t-15 62.5q0 43 15 77.5t39 60t54.5 42.5t62.5 25v169q0 8 5.5 13t12 8t12 4t6.5 1v-188q5 0 9.5 0.5t9.5 0.5q38 0 64.5 -16t26.5 -48
q0 -11 -9.5 -19t-29.5 -8h-8t-9 1q-11 28 -25 42.5t-29 18.5v-290q18 6 36 27.5t32 59.5q5 1 9 1h8q20 0 29.5 -8t9.5 -19zM76 314q0 -52 19.5 -88t47.5 -46v283q-27 -15 -47 -55.5t-20 -93.5z" />
    <glyph glyph-name="sterling" unicode="&#xa3;" horiz-adv-x="561" 
d="M428 64q30 0 46.5 -5.5t16.5 -30.5q0 -24 -11 -41t-27.5 -27.5t-35.5 -15t-35 -4.5q-63 0 -128.5 14.5t-121.5 29.5q-23 -20 -56.5 -30t-64.5 -10q-39 0 -57.5 15t-18.5 33t16.5 32.5t48.5 14.5q9 0 19.5 -1t21.5 -3q0 3 0.5 6t0.5 6q0 14 0.5 28.5t0.5 30.5q0 72 3 158
h-40q-21 0 -29.5 3.5t-8.5 8.5q0 7 15 19h65l5 64h-47q-21 0 -29.5 3.5t-8.5 8.5q0 7 15 19h74q9 74 28 143.5t53 123.5t86 87t127 33q65 0 92.5 -29t27.5 -71q0 -37 -18.5 -78t-49.5 -75.5t-72 -57.5t-86 -23h-4q-6 0 -6 7q0 5 5 15q26 11 46.5 32.5t34.5 47.5t21.5 54
t7.5 53q0 34 -14 57t-45 23q-46 0 -75.5 -24t-46.5 -64.5t-23.5 -94t-6.5 -113.5v-46h166q13 0 22.5 -4.5t9.5 -12.5t-9 -14h-187q1 -16 1 -32t2 -32h161q13 0 22.5 -4.5t9.5 -12.5t-9 -14h-182q4 -61 8.5 -117.5t5.5 -101.5v-1q0 -9 -2 -16.5t-5 -15.5q35 -8 70.5 -13.5
t68.5 -5.5q45 0 80.5 15t55.5 56zM8 -17q5 0 12.5 6.5t12.5 17.5q-5 1 -10 1.5t-9 0.5q-10 0 -14.5 -4.5t-4.5 -9.5t3.5 -8.5t9.5 -3.5z" />
    <glyph glyph-name="currency" unicode="&#xa4;" horiz-adv-x="506" 
d="M253 222q57 0 88 40.5t31 102.5q0 30 -8 56.5t-23 46t-37.5 30.5t-50.5 11q-29 0 -51 -11t-37.5 -30.5t-23.5 -46t-8 -56.5q0 -31 8 -57t23.5 -45t37.5 -30t51 -11zM19 168l69 71q-38 55 -38 126t38 124l-69 71l45 43l67 -69q24 18 54.5 29t67.5 11q36 0 67 -11t55 -29
l67 69l45 -43l-69 -71q37 -54 37 -124q0 -35 -10 -67t-28 -58l70 -72l-45 -43l-68 69q-49 -37 -121 -37t-121 37l-68 -69z" />
    <glyph glyph-name="yen" unicode="&#xa5;" horiz-adv-x="501" 
d="M232 111q0 2 -0.5 3.5t-0.5 3.5h-114q-21 0 -29.5 3.5t-8.5 8.5q0 7 15 19h134l-4 24l-4 24h-103q-21 0 -29.5 3.5t-8.5 8.5q0 7 15 19h120q-18 84 -48.5 156t-67.5 134t-78 114t-80 95q30 22 56 31.5t49 9.5q43 0 75.5 -30.5t55.5 -79.5t38 -109.5t24.5 -120.5
t14.5 -113.5t8 -86.5h3q2 31 7 83.5t14 112.5t24 121t38 110.5t55.5 81t76.5 31.5q23 0 49 -9.5t56 -31.5q-40 -43 -80 -95t-76 -114t-66.5 -134.5t-49.5 -155.5h104q13 0 22.5 -4.5t9.5 -12.5t-9 -14h-133l-9 -48h119q13 0 22.5 -4.5t9.5 -12.5t-9 -14h-146q-1 -3 -1 -7
q-2 -16 -3 -29.5t-1 -24.5q0 -26 3 -48t8 -55q0 -7 -11.5 -11t-25.5 -4q-11 0 -20 3t-11 10q3 29 4.5 47t1.5 34t-1.5 33t-3.5 45z" />
    <glyph glyph-name="brokenbar" unicode="&#xa6;" horiz-adv-x="272" 
d="M62 273l12 8q5 3 10.5 6t10.5 3q11 0 11 -17v-378q-6 -8 -12 -13q-5 -5 -10.5 -8.5t-10.5 -3.5t-8 5.5t-3 19.5v378zM62 854l12 8q5 3 10.5 6t10.5 3q11 0 11 -17v-369q-6 -8 -12 -13q-5 -5 -10.5 -8.5t-10.5 -3.5t-8 5.5t-3 19.5v369z" />
    <glyph glyph-name="section" unicode="&#xa7;" horiz-adv-x="545" 
d="M450 332q0 -23 -11 -50q17 -29 17 -68q0 -66 -26 -117t-67.5 -86t-93.5 -53t-103 -18q-41 0 -79 12t-67 36.5t-46 61.5t-17 88q0 33 12 65t34.5 57t55.5 40t76 15q44 0 65.5 -16t21.5 -39q0 -17 -13 -34t-39 -31q-17 24 -36.5 34.5t-39.5 10.5q-52 0 -74.5 -25.5
t-22.5 -61.5q0 -47 14.5 -80.5t39 -55.5t56 -32.5t66.5 -10.5q42 0 83.5 14.5t74.5 42.5t54 68t21 91q0 31 -17 51.5t-45 34.5t-64 23.5t-73 18.5t-73 21t-64 30t-45 44.5t-17 65.5q0 24 9 50q-15 27 -15 65q0 50 21.5 87t56 61.5t78.5 36.5t89 12q42 0 81.5 -10.5t70.5 -31
t49.5 -51.5t18.5 -72q0 -17 -6.5 -33t-17 -28t-25 -19t-30.5 -7q-24 0 -46 16q19 29 27 54.5t8 48.5q0 28 -10 49t-26.5 34.5t-38.5 20t-46 6.5q-32 0 -65.5 -11t-60.5 -31t-44 -48.5t-17 -64.5q0 -39 28 -61.5t70.5 -37.5t92 -27.5t92 -31t70.5 -47t28 -76.5zM424 305
q0 29 -20 47.5t-53 31t-74 22t-82.5 20.5t-80 26t-66.5 39q7 -25 31.5 -41t58.5 -28t74.5 -22t80 -22.5t74 -29.5t57.5 -44v1z" />
    <glyph glyph-name="dieresis" unicode="&#xa8;" horiz-adv-x="310" 
d="M220 435q0 -26 -19.5 -40t-42.5 -14q-20 0 -35 10.5t-15 33.5q0 26 19.5 40t42.5 14q20 0 35 -10.5t15 -33.5zM8 435q0 -26 -19.5 -40t-42.5 -14q-20 0 -35 10.5t-15 33.5q0 26 19.5 40t42.5 14q20 0 35 -10.5t15 -33.5z" />
    <glyph glyph-name="copyright" unicode="&#xa9;" horiz-adv-x="601" 
d="M351 413q14 0 23.5 -4.5t9.5 -9.5q0 -7 -15 -8q-2 10 -8.5 12t-14.5 2q-9 0 -15 -5q17 -8 24.5 -23t7.5 -31q0 -22 -12 -39.5t-29 -17.5q-18 0 -26 12.5t-8 29.5q0 14 5 30t15 28q-11 8 -29 8q-25 0 -44.5 -14.5t-33.5 -38t-21.5 -52.5t-7.5 -59q0 -27 6.5 -52
t19.5 -44.5t33.5 -31t49.5 -11.5t54.5 14.5t41.5 40.5q4 6 7.5 13l6.5 13l8 -2q-3 -6 -6.5 -12t-6.5 -13q-24 -43 -65.5 -67t-89.5 -24q-36 0 -62.5 11t-44 29.5t-25.5 43.5t-8 52q0 37 14 75.5t40 69.5t62.5 50.5t81.5 19.5q18 0 33 -5q15 10 29 10zM332 335q0 13 -4 26
t-13 22q-8 -12 -13 -27.5t-5 -29.5q0 -13 5 -20t11 -7q7 0 13 9t6 27zM-10 231q0 53 20 99.5t55 81.5t81.5 55t99.5 20t99.5 -20t81.5 -55t55 -81.5t20 -99.5t-20 -99.5t-55 -81.5t-81.5 -55t-99.5 -20t-99.5 20t-81.5 55t-55 81.5t-20 99.5zM15 231q0 -48 18 -90
t49.5 -73.5t73.5 -49.5t90 -18t90 18t73.5 49.5t49.5 73.5t18 90t-18 90t-49.5 73.5t-73.5 49.5t-90 18t-90 -18t-73.5 -49.5t-49.5 -73.5t-18 -90z" />
    <glyph glyph-name="ordfeminine" unicode="&#xaa;" horiz-adv-x="459" 
d="M182 511q31 0 54 17q-19 32 -19 70q0 31 14.5 54t46.5 23q18 0 26.5 -11.5t8.5 -29.5q0 -19 -8.5 -42t-25.5 -46q6 -17 15.5 -27.5t23.5 -10.5q28 0 63 32l7 -12q-45 -43 -81 -43q-19 0 -33.5 7.5t-25.5 19.5q-23 -20 -51 -32t-62 -12q-48 0 -69 24t-21 59q0 28 13 59.5
t37.5 57t58.5 42.5t76 17q23 0 36 -9t13 -19q0 -16 -29 -19q-5 17 -16.5 20.5t-24.5 3.5q-17 0 -30.5 -11t-22.5 -28.5t-14 -38.5t-5 -42q0 -29 11 -51t34 -22zM368 399q13 0 22.5 -4.5t9.5 -12.5t-9 -14h-332q-21 0 -29.5 3.5t-8.5 8.5q0 7 15 19h332zM268 617q0 -12 1 -25
t4 -25q11 18 17 37t6 33q0 26 -15 26q-7 0 -10 -13t-3 -33z" />
    <glyph glyph-name="guillemotleft" unicode="&#xab;" horiz-adv-x="599" 
d="M306 122q12 0 39.5 -4.5t56 -14t50 -23.5t21.5 -32q0 -13 -10 -25.5t-20 -21.5q-24 22 -51.5 39.5t-54.5 30.5t-53 20t-47 7q-5 0 -7 5t-2 12q0 8 2.5 16t6.5 10q20 0 45 7t51.5 21.5t52.5 36.5t48 52q11 0 25 -13.5t14 -31.5q0 -27 -21.5 -42.5t-51.5 -25t-60.5 -14.5
t-48.5 -10q4 0 7.5 0.5t7.5 0.5zM108 115q12 0 39.5 -3.5t56 -11.5t50 -21t21.5 -31q0 -13 -10 -25.5t-20 -21.5q-49 44 -106 67t-100 23q-5 0 -7 5t-2 12q0 8 2.5 16t6.5 10q20 0 45 8t51.5 24t52.5 39t48 53q11 0 25 -13.5t14 -31.5q0 -27 -21.5 -43.5t-51.5 -27
t-60.5 -17t-48.5 -11.5q4 0 7.5 0.5t7.5 0.5z" />
    <glyph glyph-name="uni00AD" unicode="&#xad;" horiz-adv-x="533" 
d="M446 128q-15 11 -51 11q-23 0 -52 -3.5t-60 -7.5t-61.5 -7.5t-57.5 -3.5q-21 0 -39 1t-31 5t-20.5 11.5t-7.5 20.5q0 9 4 21.5t14 28.5q8 -20 36 -28t66 -8q35 0 74 4.5t73.5 10.5t61 10.5t35.5 4.5q32 0 32 -27q0 -18 -16 -44z" />
    <glyph glyph-name="registered" unicode="&#xae;" horiz-adv-x="601" 
d="M347 347q0 -32 -15 -59t-39 -49t-53.5 -38t-58.5 -26q0 -2 0.5 -3t0.5 -3q25 -11 50.5 -25t50 -27.5t47 -23.5t40.5 -11q-2 -18 -12.5 -27t-24.5 -9q-21 0 -38.5 12t-34.5 29l-35.5 35.5t-40.5 32.5q3 -17 8.5 -32.5t12.5 -27.5q-21 -15 -41 -15q-19 0 -31 14t-12 40v29
q-2 0 -5 -0.5t-6 -0.5q-20 0 -20 10q0 5 7 9t21 4h5q5 55 20.5 100t37 76.5t47 48.5t51.5 17q34 0 51 -24t17 -56zM178 227v-22t2 -22q42 20 73 57.5t31 85.5q0 9 -1.5 21t-5.5 23t-12 18.5t-20 7.5q-16 0 -28.5 -14.5t-21 -38.5t-13 -54.5t-4.5 -61.5zM121 168q1 3 1 9h-5
q-5 0 -11.5 -2.5t-6.5 -4.5q0 -3 12 -3q3 0 5.5 0.5t4.5 0.5zM-10 231q0 53 20 99.5t55 81.5t81.5 55t99.5 20t99.5 -20t81.5 -55t55 -81.5t20 -99.5t-20 -99.5t-55 -81.5t-81.5 -55t-99.5 -20t-99.5 20t-81.5 55t-55 81.5t-20 99.5zM15 231q0 -48 18 -90t49.5 -73.5
t73.5 -49.5t90 -18t90 18t73.5 49.5t49.5 73.5t18 90t-18 90t-49.5 73.5t-73.5 49.5t-90 18t-90 -18t-73.5 -49.5t-49.5 -73.5t-18 -90z" />
    <glyph glyph-name="macron" unicode="&#xaf;" horiz-adv-x="506" 
d="M249 480q13 0 22.5 -15t9.5 -31q0 -15 -9 -21h-216q-21 0 -29.5 10t-8.5 23q0 22 15 34h216z" />
    <glyph glyph-name="degree" unicode="&#xb0;" horiz-adv-x="295" 
d="M156 750q20 0 35.5 -8t25.5 -20.5t15 -29t5 -34.5q0 -19 -6 -37.5t-18 -33t-29.5 -23.5t-40.5 -9t-41 8t-30 21.5t-18 30.5t-6 35q0 19 6.5 37t20 32t34 22.5t47.5 8.5zM151 584q34 0 50.5 23t16.5 52t-16 52.5t-47 23.5q-29 0 -43.5 -24t-14.5 -53q0 -28 13.5 -51
t40.5 -23z" />
    <glyph glyph-name="uni00B2" unicode="&#xb2;" horiz-adv-x="480" 
d="M266 783q76 0 108.5 -30t32.5 -77q0 -36 -17 -78.5t-46 -84.5t-67.5 -80.5t-82.5 -66.5q50 -7 99.5 -14t88.5 -7q25 0 43.5 4t28.5 14q0 -4 0.5 -7t0.5 -7q0 -34 -12 -52.5t-30.5 -27.5t-39.5 -10.5t-39 -1.5q-21 0 -45 8t-50 20t-51.5 25.5t-49.5 24.5q-55 -25 -107 -25
q-14 0 -21.5 6t-7.5 15q0 14 20.5 29.5t64.5 15.5q23 0 49 -3q34 28 65.5 68t56 83.5t39 86.5t14.5 77q0 32 -16 52.5t-52 20.5q-17 0 -34 -7.5t-30 -23t-21 -38.5t-8 -54v-17t2 -18q-33 -23 -53 -23q-22 0 -32.5 13t-10.5 33q0 22 13.5 49.5t40 51.5t65.5 40t91 16zM40 329
q15 0 31.5 5.5t33.5 15.5q-25 10 -39 10t-22.5 -9.5t-8.5 -16.5q0 -5 5 -5z" />
    <glyph glyph-name="uni00B3" unicode="&#xb3;" horiz-adv-x="480" 
d="M152 416q-13 17 -33.5 26.5t-40.5 9.5q-21 0 -33 -20.5t-12 -46.5q0 -17 5.5 -34.5t18 -31.5t32 -23t47.5 -9q33 0 66.5 13.5t61.5 41t45.5 68.5t17.5 96q0 39 -22 62q-25 -14 -54.5 -21.5t-62.5 -7.5q-22 0 -33 7.5t-11 18.5q0 14 22.5 28.5t70.5 14.5q15 0 28.5 -1
t26.5 -3q23 26 37 57t14 53q0 28 -15.5 40.5t-37.5 12.5q-18 0 -38.5 -7.5t-37.5 -20.5t-28 -31t-11 -38q0 -11 3.5 -22t11.5 -22q-4 0 -7.5 -0.5t-8.5 -0.5q-14 0 -28 2t-25.5 8t-19 16t-7.5 26q0 27 17.5 47.5t45.5 34.5t62.5 21.5t68.5 7.5q26 0 50 -4.5t42 -14t29 -24
t11 -33.5q0 -26 -20.5 -58.5t-55.5 -60.5q54 -17 78 -49.5t24 -71.5q0 -56 -23.5 -98t-61 -70.5t-84.5 -43t-93 -14.5q-48 0 -81.5 11.5t-54.5 30.5t-31 43.5t-10 49.5t8.5 48.5t24 42t37 29.5t47.5 11q35 0 52.5 -13t17.5 -31q0 -14 -10.5 -27.5t-31.5 -24.5zM198 555
q21 0 40 8.5t36 22.5q-17 5 -34 5q-34 0 -52 -8t-18 -16q0 -12 28 -12z" />
    <glyph glyph-name="acute" unicode="&#xb4;" horiz-adv-x="506" 
d="M211 501q35 -8 49.5 -19.5t14.5 -25.5q0 -15 -15 -30t-38.5 -27t-53 -20t-58.5 -8q-13 0 -16.5 6.5t-3.5 9.5q37 13 59 26.5t34 27.5t17.5 29t10.5 31z" />
    <glyph glyph-name="paragraph" unicode="&#xb6;" horiz-adv-x="426" 
d="M259 561q-10 1 -19.5 2.5t-19.5 3.5q-5 -18 -8.5 -48t-6 -66.5t-3.5 -79t-1 -86.5q0 -47 1.5 -92.5t4 -86.5t6.5 -74.5t9 -55.5q0 -14 -8.5 -23t-26.5 -9q-12 0 -25 4q-4 12 -7 36.5t-5.5 57.5t-3.5 72.5t-1 80.5q0 46 1.5 91.5t4 85t6 70t8.5 46.5q-20 -34 -46 -49
t-53 -15q-45 0 -68.5 29t-23.5 66q0 20 7.5 40t22.5 36t37.5 26t53.5 10q13 0 33.5 -2t44.5 -5t49.5 -5t48.5 -2q25 0 44.5 3.5t30.5 12.5q13 -25 13 -40q0 -20 -18 -28t-44 -8q-2 -24 -3 -59t-1 -77q0 -57 2 -122t6 -126.5t9.5 -113.5t13.5 -83q0 -14 -8.5 -23t-26.5 -9
q-12 0 -25 4q-5 12 -8 42.5t-5.5 72t-3.5 91.5t-1 103q0 45 1 89.5t2.5 84t4 72.5t5.5 56z" />
    <glyph glyph-name="periodcentered" unicode="&#xb7;" horiz-adv-x="284" 
d="M161 135q0 -26 -19.5 -40t-42.5 -14q-20 0 -35 10.5t-15 33.5q0 26 19.5 40t42.5 14q20 0 35 -10.5t15 -33.5z" />
    <glyph glyph-name="cedilla" unicode="&#xb8;" horiz-adv-x="422" 
d="M97 -19q-10 -7 -16 -15.5t-7 -22.5q34 -2 56 -10t35 -19t18 -23.5t5 -22.5q0 -19 -10.5 -33t-27 -23.5t-37.5 -14.5t-41 -5q-32 0 -56 12t-24 36q0 12 6 30q14 -6 27.5 -8.5t24.5 -2.5q28 0 44.5 11.5t16.5 23.5q0 10 -11.5 17t-37.5 7t-26 19q0 12 8.5 26.5t17.5 25.5z
" />
    <glyph glyph-name="uni00B9" unicode="&#xb9;" horiz-adv-x="309" 
d="M223 736q-3 -61 -4.5 -123.5t-1.5 -135.5q0 -27 1 -48.5t2.5 -44.5t4.5 -49.5t8 -63.5q-45 -12 -73 -12q-35 0 -48.5 16.5t-13.5 46.5q0 29 10 69t25 89.5t31.5 106.5t29.5 119q-14 -32 -33.5 -48t-36.5 -16q-16 0 -26.5 12t-10.5 35q0 9 1.5 20t6.5 23q13 -10 28 -10
q14 0 27 6.5t23.5 14t17 14t7.5 6.5q22 0 25 -27z" />
    <glyph glyph-name="ordmasculine" unicode="&#xba;" horiz-adv-x="411" 
d="M82 548q0 26 12.5 54t36.5 51q-3 12 -3 25q0 12 7.5 22.5t18.5 19t24 13t25 4.5q25 0 45 -11.5t34 -30.5t21 -43t7 -49q0 -26 -8 -51.5t-24 -45t-40.5 -31.5t-58.5 -12q-50 0 -73.5 25t-23.5 60zM312 399q13 0 22.5 -4.5t9.5 -12.5t-9 -14h-248q-21 0 -29.5 3.5t-8.5 8.5
q0 7 15 19h248zM175 626q17 -25 45.5 -42t60.5 -20v9q0 27 -12.5 50.5t-30 41.5t-36.5 28t-32 10q-16 0 -16 -15v-8t1 -8q18 11 35 18l10 -7q-11 -13 -17 -27.5t-8 -29.5zM233 509q15 0 28 9.5t18 31.5q-30 2 -58 14t-49 31v-12q0 -35 19.5 -54.5t41.5 -19.5z" />
    <glyph glyph-name="guillemotright" unicode="&#xbb;" horiz-adv-x="599" 
d="M210 137q-12 0 -39.5 4.5t-56 14t-50 23.5t-21.5 32q0 13 10 25.5t20 21.5q24 -22 51.5 -40t54.5 -30.5t53 -19.5t47 -7q5 0 7 -5t2 -12q0 -8 -2.5 -16t-6.5 -10q-20 0 -45 -7t-51.5 -21.5t-52.5 -36.5t-48 -52q-11 0 -25 13.5t-14 31.5q0 27 21.5 42.5t51.5 25
t60.5 14.5t48.5 10q-4 0 -7.5 -0.5t-7.5 -0.5zM408 144q-12 0 -39.5 3.5t-56 11.5t-50 21t-21.5 31q0 13 10 25.5t20 21.5q49 -44 106 -67t100 -23q5 0 7 -5t2 -12q0 -8 -2.5 -16t-6.5 -10q-20 0 -45 -8t-51.5 -24t-52.5 -39t-48 -53q-11 0 -25 13.5t-14 31.5
q0 27 21.5 43.5t51.5 27t60.5 17t48.5 11.5q-4 0 -7.5 -0.5t-7.5 -0.5z" />
    <glyph glyph-name="onequarter" unicode="&#xbc;" horiz-adv-x="907" 
d="M747 828q4 -2 8 -6q3 -3 6 -7t3 -10q0 -10 -11 -24l-718 -905q-6 -8 -21 -8q-7 0 -13 2.5t-9 8.5zM223 734q-3 -93 -4.5 -150.5t-1.5 -97.5q0 -27 1 -49t2.5 -44t4 -47t6.5 -58l2 -17q-45 -12 -73 -12q-35 0 -48.5 16.5t-13.5 46.5q0 29 10 69t25 89.5t31.5 106.5
t29.5 119q-14 -32 -33.5 -48t-36.5 -16q-16 0 -26.5 12t-10.5 35q0 9 1.5 20t6.5 23q13 -10 28 -10q14 0 27 6.5t23.5 14t17 14t7.5 6.5q22 0 25 -27v-2zM860 129q-10 2 -18 2q-19 0 -46 -5.5t-60 -12.5q-1 -12 -1 -24v-24q0 -36 2.5 -70.5t7.5 -66.5q-12 -4 -31 -4
q-17 0 -34.5 4.5t-32 15t-23.5 26t-9 38.5q0 21 2.5 42.5t7.5 43.5q-21 -2 -42.5 -3.5t-43.5 -1.5q-45 0 -73.5 9t-28.5 39q0 37 16 71.5t40.5 67.5t53 66t53 67.5t40.5 71.5t16 78v13q60 -8 85 -26t25 -43q0 -26 -21 -57t-53 -64.5t-69 -67.5t-69 -64t-53 -55.5t-21 -41.5
q0 -12 1.5 -19.5t10 -11t25 -5t46.5 -1.5q31 0 69 8q11 40 28 80.5t37 78t42.5 71.5t44.5 63q6 10 14 10q5 0 13 -5q-13 -12 -24.5 -37.5t-21 -61.5t-16.5 -79.5t-11 -89.5q28 8 55.5 13t55.5 5q20 0 27.5 -4.5t7.5 -11.5q0 -8 -8 -16t-16 -11z" />
    <glyph glyph-name="onehalf" unicode="&#xbd;" horiz-adv-x="883" 
d="M670 458q76 0 108.5 -30t32.5 -77q0 -36 -17 -78.5t-46 -84.5t-67.5 -80.5t-82.5 -66.5q50 -7 99.5 -14t88.5 -7q25 0 43.5 4t28.5 14q0 -4 0.5 -7t0.5 -7q0 -34 -12 -52.5t-30.5 -27.5t-39.5 -10.5t-39 -1.5q-21 0 -45 8t-50 20t-51.5 25.5t-49.5 24.5
q-26 -11 -53.5 -18t-53.5 -7q-14 0 -21.5 6t-7.5 15q0 14 20.5 29.5t64.5 15.5q23 0 49 -3q34 28 65.5 68t56 83.5t39 86.5t14.5 77q0 32 -16 52.5t-52 20.5q-17 0 -34 -7.5t-30 -23t-21 -38.5t-8 -54v-17t2 -18q-33 -23 -53 -23q-22 0 -32.5 13t-10.5 33q0 22 13.5 49.5
t40 51.5t65.5 40t91 16zM223 734q-3 -93 -4.5 -150.5t-1.5 -97.5q0 -54 4 -107.5t12 -107.5q-45 -12 -73 -12q-35 0 -48.5 16.5t-13.5 46.5q0 29 10 69t25 89.5t31.5 106.5t29.5 119q-14 -32 -33.5 -48t-36.5 -16q-16 0 -26.5 12t-10.5 35q0 9 1.5 20t6.5 23q13 -10 28 -10
q14 0 27 6.5t23.5 14t17 14t7.5 6.5q22 0 25 -27v-2zM747 828q4 -2 8 -6q3 -3 6 -7t3 -10q0 -10 -11 -24l-718 -905q-6 -8 -21 -8q-7 0 -13 2.5t-9 8.5zM444 4q15 0 31.5 5.5t33.5 15.5q-25 10 -39 10t-22.5 -9.5t-8.5 -16.5q0 -5 5 -5z" />
    <glyph glyph-name="threequarters" unicode="&#xbe;" horiz-adv-x="1027" 
d="M152 416q-13 17 -33.5 26.5t-40.5 9.5q-21 0 -33 -20.5t-12 -46.5q0 -17 5.5 -34.5t18 -31.5t32 -23t47.5 -9q33 0 66.5 13.5t61.5 41t45.5 68.5t17.5 96q0 39 -22 62q-25 -14 -54.5 -21.5t-62.5 -7.5q-22 0 -33 7.5t-11 18.5q0 14 22.5 28.5t70.5 14.5q15 0 28.5 -1
t26.5 -3q23 26 37 57t14 53q0 28 -15.5 40.5t-37.5 12.5q-18 0 -38.5 -7.5t-37.5 -20.5t-28 -31t-11 -38q0 -11 3.5 -22t11.5 -22q-4 0 -7.5 -0.5t-8.5 -0.5q-14 0 -28 2t-25.5 8t-19 16t-7.5 26q0 27 17.5 47.5t45.5 34.5t62.5 21.5t68.5 7.5q26 0 50 -4.5t42 -14t29 -24
t11 -33.5q0 -26 -20.5 -58.5t-55.5 -60.5q54 -17 78 -49.5t24 -71.5q0 -56 -23.5 -98t-61 -70.5t-84.5 -43t-93 -14.5q-48 0 -81.5 11.5t-54.5 30.5t-31 43.5t-10 49.5t8.5 48.5t24 42t37 29.5t47.5 11q35 0 52.5 -13t17.5 -31q0 -14 -10.5 -27.5t-31.5 -24.5zM980 129
q-10 2 -18 2q-19 0 -46 -5.5t-60 -12.5q-1 -12 -1 -24v-24q0 -36 2.5 -70.5t7.5 -66.5q-12 -4 -31 -4q-17 0 -34.5 4.5t-32 15t-23.5 26t-9 38.5q0 21 2.5 42.5t7.5 43.5q-21 -2 -42.5 -3.5t-43.5 -1.5q-45 0 -73.5 9t-28.5 39q0 37 16 71.5t40.5 67.5t53 66t53 67.5
t40.5 71.5t16 78v13q60 -8 85 -26t25 -43q0 -26 -21 -57t-53 -64.5t-69 -67.5t-69 -64t-53 -55.5t-21 -41.5q0 -12 1.5 -19.5t10 -11t25 -5t46.5 -1.5q31 0 69 8q11 40 28 80.5t37 78t42.5 71.5t44.5 63q6 10 14 10q5 0 13 -5q-13 -12 -24.5 -37.5t-21 -61.5t-16.5 -79.5
t-11 -89.5q28 8 55.5 13t55.5 5q20 0 27.5 -4.5t7.5 -11.5q0 -8 -8 -16t-16 -11zM867 828q4 -2 8 -6q3 -3 6 -7t3 -10q0 -10 -11 -24l-718 -905q-6 -8 -21 -8q-7 0 -13 2.5t-9 8.5zM198 555q21 0 40 8.5t36 22.5q-17 5 -34 5q-34 0 -52 -8t-18 -16q0 -12 28 -12z" />
    <glyph glyph-name="questiondown" unicode="&#xbf;" horiz-adv-x="317" 
d="M63 389q0 26 19.5 40t42.5 14q20 0 35 -10.5t15 -33.5q0 -26 -19.5 -40t-42.5 -14q-20 0 -35 10.5t-15 33.5zM365 -120q0 -65 -32.5 -113.5t-83 -81.5t-110 -49.5t-113.5 -16.5q-32 0 -60 6t-48.5 17.5t-32.5 29.5t-12 42q0 48 18.5 88t46.5 76t61 69.5t61 68t46.5 71.5
t18.5 80t-24 62t-59 19q5 39 24.5 57t42.5 18q26 0 48.5 -22.5t22.5 -64.5q0 -49 -13.5 -89.5t-33.5 -75.5t-43 -65.5t-43 -59.5t-33.5 -57.5t-13.5 -59.5q0 -80 31.5 -116.5t74.5 -36.5q29 0 59 15.5t54.5 44t40 68t15.5 88.5q0 46 -15 66t-37 20q-16 0 -33.5 -9t-33 -25
t-28.5 -37.5t-19 -46.5q-19 18 -19 37q0 22 11.5 41t30.5 33.5t42 22.5t47 8q37 0 64 -9.5t45 -26t26.5 -39t8.5 -47.5z" />
    <glyph glyph-name="Agrave" unicode="&#xc0;" horiz-adv-x="842" 
d="M378 932q5 -16 10.5 -31t17.5 -29t34 -27.5t59 -26.5q0 -3 -3.5 -9.5t-16.5 -6.5q-29 0 -58.5 6.5t-53 17t-38.5 24t-15 28.5q0 14 14.5 30t49.5 24zM821 144q-51 -90 -109.5 -131t-111.5 -41q-36 0 -62.5 16t-45.5 43q-44 -35 -96.5 -56.5t-115.5 -21.5q-86 0 -148 25.5
t-102.5 68.5t-60 100t-19.5 120q0 57 15.5 117t45.5 116t73.5 105t99 85.5t123.5 58t146 21.5q49 0 86 -12.5t61.5 -31t37 -41t12.5 -41.5q0 -22 -15 -36.5t-45 -14.5q-16 0 -31 4q-3 45 -18.5 73t-37.5 43t-46 20.5t-45 5.5q-65 0 -111.5 -31.5t-77 -83t-45 -117
t-14.5 -132.5q0 -63 12 -122t35 -105t56.5 -74t76.5 -28q35 0 66 8t58 22q-13 32 -18.5 70t-5.5 79q0 57 11 113.5t32 102t50 73.5t65 28q37 0 55 -34.5t18 -89.5q0 -35 -7.5 -75.5t-22 -82.5t-36.5 -83t-50 -78q14 -42 34.5 -68t49.5 -26q32 0 72 33.5t86 108.5
q19 32 34 63l19 -5q-7 -15 -15.5 -30t-17.5 -31zM529 311q0 -45 4.5 -89t14.5 -84q25 28 44 62t31.5 69t18.5 69.5t6 64.5q0 48 -14 79t-41 31q-16 0 -28 -16.5t-20 -44t-12 -64.5t-4 -77z" />
    <glyph glyph-name="Aacute" unicode="&#xc1;" horiz-adv-x="842" 
d="M420 924q35 -8 49.5 -19.5t14.5 -25.5q0 -15 -15 -30t-38.5 -27t-53 -20t-58.5 -8q-13 0 -16.5 6.5t-3.5 9.5q37 13 59 26.5t34 27.5t17.5 29t10.5 31zM821 144q-51 -90 -109.5 -131t-111.5 -41q-36 0 -62.5 16t-45.5 43q-44 -35 -96.5 -56.5t-115.5 -21.5
q-86 0 -148 25.5t-102.5 68.5t-60 100t-19.5 120q0 57 15.5 117t45.5 116t73.5 105t99 85.5t123.5 58t146 21.5q49 0 86 -12.5t61.5 -31t37 -41t12.5 -41.5q0 -22 -15 -36.5t-45 -14.5q-16 0 -31 4q-3 45 -18.5 73t-37.5 43t-46 20.5t-45 5.5q-65 0 -111.5 -31.5t-77 -83
t-45 -117t-14.5 -132.5q0 -63 12 -122t35 -105t56.5 -74t76.5 -28q35 0 66 8t58 22q-13 32 -18.5 70t-5.5 79q0 57 11 113.5t32 102t50 73.5t65 28q37 0 55 -34.5t18 -89.5q0 -35 -7.5 -75.5t-22 -82.5t-36.5 -83t-50 -78q14 -42 34.5 -68t49.5 -26q32 0 72 33.5t86 108.5
q19 32 34 63l19 -5q-7 -15 -15.5 -30t-17.5 -31zM529 311q0 -45 4.5 -89t14.5 -84q25 28 44 62t31.5 69t18.5 69.5t6 64.5q0 48 -14 79t-41 31q-16 0 -28 -16.5t-20 -44t-12 -64.5t-4 -77z" />
    <glyph glyph-name="Acircumflex" unicode="&#xc2;" horiz-adv-x="842" 
d="M329 930q3 8 13.5 12t23.5 4q14 0 25.5 -4t14.5 -12q13 -33 32.5 -63.5t55.5 -52.5q0 -3 -3.5 -9.5t-16.5 -6.5q-38 0 -65 17t-42 40q-15 -23 -41.5 -40t-64.5 -17q-13 0 -16.5 6.5t-3.5 9.5q38 23 57.5 54t30.5 62zM821 144q-51 -90 -109.5 -131t-111.5 -41
q-36 0 -62.5 16t-45.5 43q-44 -35 -96.5 -56.5t-115.5 -21.5q-86 0 -148 25.5t-102.5 68.5t-60 100t-19.5 120q0 57 15.5 117t45.5 116t73.5 105t99 85.5t123.5 58t146 21.5q49 0 86 -12.5t61.5 -31t37 -41t12.5 -41.5q0 -22 -15 -36.5t-45 -14.5q-16 0 -31 4
q-3 45 -18.5 73t-37.5 43t-46 20.5t-45 5.5q-65 0 -111.5 -31.5t-77 -83t-45 -117t-14.5 -132.5q0 -63 12 -122t35 -105t56.5 -74t76.5 -28q35 0 66 8t58 22q-13 32 -18.5 70t-5.5 79q0 57 11 113.5t32 102t50 73.5t65 28q37 0 55 -34.5t18 -89.5q0 -35 -7.5 -75.5
t-22 -82.5t-36.5 -83t-50 -78q14 -42 34.5 -68t49.5 -26q32 0 72 33.5t86 108.5q19 32 34 63l19 -5q-7 -15 -15.5 -30t-17.5 -31zM529 311q0 -45 4.5 -89t14.5 -84q25 28 44 62t31.5 69t18.5 69.5t6 64.5q0 48 -14 79t-41 31q-16 0 -28 -16.5t-20 -44t-12 -64.5t-4 -77z" />
    <glyph glyph-name="Atilde" unicode="&#xc3;" horiz-adv-x="842" 
d="M508 910q13 -11 18.5 -24.5t5.5 -27.5q0 -23 -13.5 -40t-39.5 -17q-9 0 -24.5 5t-33.5 11.5t-37 11.5t-35 5q-17 0 -29 -7t-17 -24q-14 32 -14 52q0 23 16 30t41 7q20 0 42.5 -2t44.5 -2q23 0 42.5 4t32.5 18zM821 144q-51 -90 -109.5 -131t-111.5 -41q-36 0 -62.5 16
t-45.5 43q-44 -35 -96.5 -56.5t-115.5 -21.5q-86 0 -148 25.5t-102.5 68.5t-60 100t-19.5 120q0 57 15.5 117t45.5 116t73.5 105t99 85.5t123.5 58t146 21.5q49 0 86 -12.5t61.5 -31t37 -41t12.5 -41.5q0 -22 -15 -36.5t-45 -14.5q-16 0 -31 4q-3 45 -18.5 73t-37.5 43
t-46 20.5t-45 5.5q-65 0 -111.5 -31.5t-77 -83t-45 -117t-14.5 -132.5q0 -63 12 -122t35 -105t56.5 -74t76.5 -28q35 0 66 8t58 22q-13 32 -18.5 70t-5.5 79q0 57 11 113.5t32 102t50 73.5t65 28q37 0 55 -34.5t18 -89.5q0 -35 -7.5 -75.5t-22 -82.5t-36.5 -83t-50 -78
q14 -42 34.5 -68t49.5 -26q32 0 72 33.5t86 108.5q19 32 34 63l19 -5q-7 -15 -15.5 -30t-17.5 -31zM529 311q0 -45 4.5 -89t14.5 -84q25 28 44 62t31.5 69t18.5 69.5t6 64.5q0 48 -14 79t-41 31q-16 0 -28 -16.5t-20 -44t-12 -64.5t-4 -77z" />
    <glyph glyph-name="Adieresis" unicode="&#xc4;" horiz-adv-x="842" 
d="M365 857q0 -26 -19.5 -40t-42.5 -14q-20 0 -35 10.5t-15 33.5q0 26 19.5 40t42.5 14q20 0 35 -10.5t15 -33.5zM577 857q0 -26 -19.5 -40t-42.5 -14q-20 0 -35 10.5t-15 33.5q0 26 19.5 40t42.5 14q20 0 35 -10.5t15 -33.5zM821 144q-51 -90 -109.5 -131t-111.5 -41
q-36 0 -62.5 16t-45.5 43q-44 -35 -96.5 -56.5t-115.5 -21.5q-86 0 -148 25.5t-102.5 68.5t-60 100t-19.5 120q0 57 15.5 117t45.5 116t73.5 105t99 85.5t123.5 58t146 21.5q49 0 86 -12.5t61.5 -31t37 -41t12.5 -41.5q0 -22 -15 -36.5t-45 -14.5q-16 0 -31 4
q-3 45 -18.5 73t-37.5 43t-46 20.5t-45 5.5q-65 0 -111.5 -31.5t-77 -83t-45 -117t-14.5 -132.5q0 -63 12 -122t35 -105t56.5 -74t76.5 -28q35 0 66 8t58 22q-13 32 -18.5 70t-5.5 79q0 57 11 113.5t32 102t50 73.5t65 28q37 0 55 -34.5t18 -89.5q0 -35 -7.5 -75.5
t-22 -82.5t-36.5 -83t-50 -78q14 -42 34.5 -68t49.5 -26q32 0 72 33.5t86 108.5q19 32 34 63l19 -5q-7 -15 -15.5 -30t-17.5 -31zM529 311q0 -45 4.5 -89t14.5 -84q25 28 44 62t31.5 69t18.5 69.5t6 64.5q0 48 -14 79t-41 31q-16 0 -28 -16.5t-20 -44t-12 -64.5t-4 -77z" />
    <glyph glyph-name="Aring" unicode="&#xc5;" horiz-adv-x="842" 
d="M821 144q-51 -90 -109.5 -131t-111.5 -41q-36 0 -62.5 16t-45.5 43q-44 -35 -96.5 -56.5t-115.5 -21.5q-86 0 -148 25.5t-102.5 68.5t-60 100t-19.5 120q0 57 15.5 117t45.5 116t73.5 105t99 85.5t123.5 58t146 21.5q49 0 86 -12.5t61.5 -31t37 -41t12.5 -41.5
q0 -22 -15 -36.5t-45 -14.5q-16 0 -31 4q-3 45 -18.5 73t-37.5 43t-46 20.5t-45 5.5q-65 0 -111.5 -31.5t-77 -83t-45 -117t-14.5 -132.5q0 -63 12 -122t35 -105t56.5 -74t76.5 -28q35 0 66 8t58 22q-13 32 -18.5 70t-5.5 79q0 57 11 113.5t32 102t50 73.5t65 28
q37 0 55 -34.5t18 -89.5q0 -35 -7.5 -75.5t-22 -82.5t-36.5 -83t-50 -78q14 -42 34.5 -68t49.5 -26q32 0 72 33.5t86 108.5q19 32 34 63l19 -5q-7 -15 -15.5 -30t-17.5 -31zM529 311q0 -45 4.5 -89t14.5 -84q25 28 44 62t31.5 69t18.5 69.5t6 64.5q0 48 -14 79t-41 31
q-16 0 -28 -16.5t-20 -44t-12 -64.5t-4 -77zM403 915q34 0 50.5 -17.5t16.5 -39.5t-17.5 -40.5t-52.5 -18.5q-33 0 -50.5 18.5t-17.5 40.5t17.5 39.5t53.5 17.5zM404 833q13 0 19 7.5t6 16.5q0 10 -7 18.5t-23 8.5q-13 0 -19.5 -8t-6.5 -17q0 -10 7.5 -18t23.5 -8z" />
    <glyph glyph-name="AE" unicode="&#xc6;" horiz-adv-x="1115" 
d="M453 770q39 0 71 -8t55.5 -21.5t39 -30.5t23.5 -34q14 27 35.5 48t47.5 35.5t54.5 21.5t57.5 7q27 0 56 -8q15 11 32.5 18t37.5 7q35 0 57 -11.5t22 -22.5q0 -7 -12 -16t-31 -11q-13 43 -47 43q-11 0 -20.5 -4t-19.5 -10q35 -16 58 -47.5t23 -80.5q0 -26 -8 -51
t-21.5 -44t-32 -30.5t-39.5 -11.5q-41 0 -59.5 29t-18.5 71q0 33 11 69.5t32 65.5q-19 8 -38 8q-26 0 -53.5 -12.5t-49.5 -35.5t-36 -55t-14 -70q0 -15 1 -29t3 -27q30 6 66 6q48 0 73 -23t25 -48q0 -20 -16 -35t-49 -15q-42 0 -72.5 21.5t-48.5 55.5q-29 -22 -42.5 -59.5
t-13.5 -82.5q0 -66 24 -125.5t63 -104.5t89.5 -71.5t103.5 -26.5q54 0 106.5 31t95.5 102q19 32 34 63l19 -5q-7 -15 -15.5 -30t-17.5 -31q-28 -51 -69 -90t-89 -65.5t-100.5 -40.5t-103.5 -14q-69 0 -129.5 25t-101.5 79q-45 -38 -100 -61.5t-121 -23.5q-86 0 -148 25.5
t-102.5 68.5t-60 100t-19.5 120q0 57 15.5 117t45.5 116t73.5 105t99 85.5t123.5 58t146 21.5zM623 599q-14 -6 -33 -6q-16 0 -31 4q-3 45 -18.5 73t-37.5 43t-46 20.5t-45 5.5q-65 0 -111.5 -31.5t-77 -83t-45 -117t-14.5 -132.5q0 -63 12 -122t35 -105t56.5 -74t76.5 -28
q38 0 70.5 8.5t60.5 24.5q-34 65 -34 158q0 44 11.5 87.5t35.5 80.5t60.5 65.5t86.5 43.5q-12 37 -12 78v7zM917 618q0 43 -12 71t-31 43q-20 -29 -31 -66t-11 -69q0 -30 12 -50.5t39 -20.5q14 0 24 27.5t10 64.5zM728 509q-31 0 -53 -9q10 -32 32 -51t63 -19q18 0 27 9
t9 21q0 17 -18.5 33t-59.5 16z" />
    <glyph glyph-name="Ccedilla" unicode="&#xc7;" horiz-adv-x="701" 
d="M597 782q35 0 57 -11.5t22 -22.5q0 -15 -35 -18q-7 23 -22.5 28.5t-32.5 5.5q-21 0 -38 -13q43 -20 61 -55.5t18 -73.5q0 -26 -8 -51t-21.5 -44t-32 -30.5t-39.5 -11.5q-42 0 -61 28.5t-19 70.5q0 35 12.5 73t35.5 68q-14 9 -31.5 14.5t-39.5 5.5q-59 0 -106.5 -35
t-80.5 -91.5t-51 -127.5t-18 -143q0 -64 15 -124t47 -106.5t81 -74.5t118 -28q68 0 131 34t101 98q19 32 34 63l19 -5q-7 -15 -15.5 -30t-17.5 -31q-29 -51 -68.5 -91.5t-87.5 -69t-102.5 -43.5t-112.5 -15q-8 0 -16 0.5t-16 0.5q-3 -6 -3 -15q34 -2 56 -10t35 -19t18 -23.5
t5 -22.5q0 -19 -10.5 -33t-27 -23.5t-37.5 -14.5t-41 -5q-32 0 -56 12t-24 36q0 12 6 30q14 -6 27.5 -8.5t24.5 -2.5q28 0 44.5 11.5t16.5 23.5q0 10 -11.5 17t-37.5 7t-26 19q0 6 2 12t5 13q-71 10 -122 39t-84 72.5t-49 97.5t-16 114q0 59 15 121t44 119.5t70.5 108
t94.5 88t116 59.5t136 22q23 0 43 -3.5t37 -8.5q15 11 32 17t37 6zM551 595q0 30 -9 61.5t-31 54.5q-20 -29 -31.5 -67t-11.5 -70t11.5 -49t26.5 -17q17 0 31 21t14 66z" />
    <glyph glyph-name="Egrave" unicode="&#xc8;" horiz-adv-x="631" 
d="M284 952q5 -16 10.5 -31t17.5 -29t34 -27.5t59 -26.5q0 -3 -3.5 -9.5t-16.5 -6.5q-29 0 -58.5 6.5t-53 17t-38.5 24t-15 28.5q0 14 14.5 30t49.5 24zM139 592q0 47 19 83.5t50 61.5t69 38t76 13q27 0 56 -8q15 11 32.5 18t37.5 7q35 0 57 -11.5t22 -22.5q0 -7 -12 -16
t-31 -11q-13 43 -47 43q-11 0 -20.5 -4t-19.5 -10q35 -16 58 -47.5t23 -80.5q0 -26 -8 -51t-21.5 -44t-32 -30.5t-39.5 -11.5q-41 0 -59.5 29t-18.5 71q0 33 11 69.5t32 65.5q-19 8 -38 8q-26 0 -53.5 -12.5t-49.5 -35.5t-36 -55t-14 -70q0 -15 1 -29t3 -27q30 6 66 6
q48 0 73 -23t25 -48q0 -20 -16 -35t-49 -15q-42 0 -72.5 21.5t-48.5 55.5q-29 -22 -42.5 -59.5t-13.5 -82.5q0 -66 24 -125.5t63 -104.5t89.5 -71.5t103.5 -26.5q54 0 106.5 31t95.5 102q19 32 34 63l19 -5q-7 -15 -15.5 -30t-17.5 -31q-28 -51 -69 -90t-89 -65.5
t-100.5 -40.5t-103.5 -14q-57 0 -110 18t-93 55t-64 94.5t-24 135.5q0 44 11.5 87.5t35.5 80.5t60.5 65.5t86.5 43.5q-12 37 -12 78zM433 618q0 43 -12 71t-31 43q-20 -29 -31 -66t-11 -69q0 -30 12 -50.5t39 -20.5q14 0 24 27.5t10 64.5zM244 509q-31 0 -53 -9
q10 -32 32 -51t63 -19q18 0 27 9t9 21q0 17 -18.5 33t-59.5 16z" />
    <glyph glyph-name="Eacute" unicode="&#xc9;" horiz-adv-x="631" 
d="M344 932q35 -8 49.5 -19.5t14.5 -25.5q0 -15 -15 -30t-38.5 -27t-53 -20t-58.5 -8q-13 0 -16.5 6.5t-3.5 9.5q37 13 59 26.5t34 27.5t17.5 29t10.5 31zM139 592q0 47 19 83.5t50 61.5t69 38t76 13q27 0 56 -8q15 11 32.5 18t37.5 7q35 0 57 -11.5t22 -22.5q0 -7 -12 -16
t-31 -11q-13 43 -47 43q-11 0 -20.5 -4t-19.5 -10q35 -16 58 -47.5t23 -80.5q0 -26 -8 -51t-21.5 -44t-32 -30.5t-39.5 -11.5q-41 0 -59.5 29t-18.5 71q0 33 11 69.5t32 65.5q-19 8 -38 8q-26 0 -53.5 -12.5t-49.5 -35.5t-36 -55t-14 -70q0 -15 1 -29t3 -27q30 6 66 6
q48 0 73 -23t25 -48q0 -20 -16 -35t-49 -15q-42 0 -72.5 21.5t-48.5 55.5q-29 -22 -42.5 -59.5t-13.5 -82.5q0 -66 24 -125.5t63 -104.5t89.5 -71.5t103.5 -26.5q54 0 106.5 31t95.5 102q19 32 34 63l19 -5q-7 -15 -15.5 -30t-17.5 -31q-28 -51 -69 -90t-89 -65.5
t-100.5 -40.5t-103.5 -14q-57 0 -110 18t-93 55t-64 94.5t-24 135.5q0 44 11.5 87.5t35.5 80.5t60.5 65.5t86.5 43.5q-12 37 -12 78zM433 618q0 43 -12 71t-31 43q-20 -29 -31 -66t-11 -69q0 -30 12 -50.5t39 -20.5q14 0 24 27.5t10 64.5zM244 509q-31 0 -53 -9
q10 -32 32 -51t63 -19q18 0 27 9t9 21q0 17 -18.5 33t-59.5 16z" />
    <glyph glyph-name="Ecircumflex" unicode="&#xca;" horiz-adv-x="631" 
d="M263 958q3 8 13.5 12t23.5 4q14 0 25.5 -4t14.5 -12q13 -33 32.5 -63.5t55.5 -52.5q0 -3 -3.5 -9.5t-16.5 -6.5q-38 0 -65 17t-42 40q-15 -23 -41.5 -40t-64.5 -17q-13 0 -16.5 6.5t-3.5 9.5q38 23 57.5 54t30.5 62zM139 592q0 47 19 83.5t50 61.5t69 38t76 13
q27 0 56 -8q15 11 32.5 18t37.5 7q35 0 57 -11.5t22 -22.5q0 -7 -12 -16t-31 -11q-13 43 -47 43q-11 0 -20.5 -4t-19.5 -10q35 -16 58 -47.5t23 -80.5q0 -26 -8 -51t-21.5 -44t-32 -30.5t-39.5 -11.5q-41 0 -59.5 29t-18.5 71q0 33 11 69.5t32 65.5q-19 8 -38 8
q-26 0 -53.5 -12.5t-49.5 -35.5t-36 -55t-14 -70q0 -15 1 -29t3 -27q30 6 66 6q48 0 73 -23t25 -48q0 -20 -16 -35t-49 -15q-42 0 -72.5 21.5t-48.5 55.5q-29 -22 -42.5 -59.5t-13.5 -82.5q0 -66 24 -125.5t63 -104.5t89.5 -71.5t103.5 -26.5q54 0 106.5 31t95.5 102
q19 32 34 63l19 -5q-7 -15 -15.5 -30t-17.5 -31q-28 -51 -69 -90t-89 -65.5t-100.5 -40.5t-103.5 -14q-57 0 -110 18t-93 55t-64 94.5t-24 135.5q0 44 11.5 87.5t35.5 80.5t60.5 65.5t86.5 43.5q-12 37 -12 78zM433 618q0 43 -12 71t-31 43q-20 -29 -31 -66t-11 -69
q0 -30 12 -50.5t39 -20.5q14 0 24 27.5t10 64.5zM244 509q-31 0 -53 -9q10 -32 32 -51t63 -19q18 0 27 9t9 21q0 17 -18.5 33t-59.5 16z" />
    <glyph glyph-name="Edieresis" unicode="&#xcb;" horiz-adv-x="631" 
d="M274 884q0 -26 -19.5 -40t-42.5 -14q-20 0 -35 10.5t-15 33.5q0 26 19.5 40t42.5 14q20 0 35 -10.5t15 -33.5zM486 884q0 -26 -19.5 -40t-42.5 -14q-20 0 -35 10.5t-15 33.5q0 26 19.5 40t42.5 14q20 0 35 -10.5t15 -33.5zM139 592q0 47 19 83.5t50 61.5t69 38t76 13
q27 0 56 -8q15 11 32.5 18t37.5 7q35 0 57 -11.5t22 -22.5q0 -7 -12 -16t-31 -11q-13 43 -47 43q-11 0 -20.5 -4t-19.5 -10q35 -16 58 -47.5t23 -80.5q0 -26 -8 -51t-21.5 -44t-32 -30.5t-39.5 -11.5q-41 0 -59.5 29t-18.5 71q0 33 11 69.5t32 65.5q-19 8 -38 8
q-26 0 -53.5 -12.5t-49.5 -35.5t-36 -55t-14 -70q0 -15 1 -29t3 -27q30 6 66 6q48 0 73 -23t25 -48q0 -20 -16 -35t-49 -15q-42 0 -72.5 21.5t-48.5 55.5q-29 -22 -42.5 -59.5t-13.5 -82.5q0 -66 24 -125.5t63 -104.5t89.5 -71.5t103.5 -26.5q54 0 106.5 31t95.5 102
q19 32 34 63l19 -5q-7 -15 -15.5 -30t-17.5 -31q-28 -51 -69 -90t-89 -65.5t-100.5 -40.5t-103.5 -14q-57 0 -110 18t-93 55t-64 94.5t-24 135.5q0 44 11.5 87.5t35.5 80.5t60.5 65.5t86.5 43.5q-12 37 -12 78zM433 618q0 43 -12 71t-31 43q-20 -29 -31 -66t-11 -69
q0 -30 12 -50.5t39 -20.5q14 0 24 27.5t10 64.5zM244 509q-31 0 -53 -9q10 -32 32 -51t63 -19q18 0 27 9t9 21q0 17 -18.5 33t-59.5 16z" />
    <glyph glyph-name="Igrave" unicode="&#xcc;" horiz-adv-x="245" 
d="M117 -8q0 -4 -5.5 -7.5t-13.5 -6.5t-17 -4.5t-16 -1.5q-9 0 -19 26t-19.5 68t-17.5 96t-14.5 111t-10 111.5t-3.5 97.5q0 70 7.5 122t27 87.5t53.5 54.5t86 22q-11 -73 -18 -170t-11.5 -202t-6.5 -210.5t-2 -193.5zM55 929q5 -16 10.5 -31t17.5 -29t34 -27.5t59 -26.5
q0 -3 -3.5 -9.5t-16.5 -6.5q-29 0 -58.5 6.5t-53 17t-38.5 24t-15 28.5q0 14 14.5 30t49.5 24z" />
    <glyph glyph-name="Iacute" unicode="&#xcd;" horiz-adv-x="245" 
d="M117 -8q0 -4 -5.5 -7.5t-13.5 -6.5t-17 -4.5t-16 -1.5q-9 0 -19 26t-19.5 68t-17.5 96t-14.5 111t-10 111.5t-3.5 97.5q0 70 7.5 122t27 87.5t53.5 54.5t86 22q-11 -73 -18 -170t-11.5 -202t-6.5 -210.5t-2 -193.5zM104 916q35 -8 49.5 -19.5t14.5 -25.5q0 -15 -15 -30
t-38.5 -27t-53 -20t-58.5 -8q-13 0 -16.5 6.5t-3.5 9.5q37 13 59 26.5t34 27.5t17.5 29t10.5 31z" />
    <glyph glyph-name="Icircumflex" unicode="&#xce;" horiz-adv-x="245" 
d="M117 -8q0 -4 -5.5 -7.5t-13.5 -6.5t-17 -4.5t-16 -1.5q-9 0 -19 26t-19.5 68t-17.5 96t-14.5 111t-10 111.5t-3.5 97.5q0 70 7.5 122t27 87.5t53.5 54.5t86 22q-11 -73 -18 -170t-11.5 -202t-6.5 -210.5t-2 -193.5zM41 927q3 8 13.5 12t23.5 4q14 0 25.5 -4t14.5 -12
q13 -33 32.5 -63.5t55.5 -52.5q0 -3 -3.5 -9.5t-16.5 -6.5q-38 0 -65 17t-42 40q-15 -23 -41.5 -40t-64.5 -17q-13 0 -16.5 6.5t-3.5 9.5q38 23 57.5 54t30.5 62z" />
    <glyph glyph-name="Idieresis" unicode="&#xcf;" horiz-adv-x="245" 
d="M117 -8q0 -4 -5.5 -7.5t-13.5 -6.5t-17 -4.5t-16 -1.5q-9 0 -19 26t-19.5 68t-17.5 96t-14.5 111t-10 111.5t-3.5 97.5q0 70 7.5 122t27 87.5t53.5 54.5t86 22q-11 -73 -18 -170t-11.5 -202t-6.5 -210.5t-2 -193.5zM242 868q0 -26 -19.5 -40t-42.5 -14q-20 0 -35 10.5
t-15 33.5q0 26 19.5 40t42.5 14q20 0 35 -10.5t15 -33.5zM30 868q0 -26 -19.5 -40t-42.5 -14q-20 0 -35 10.5t-15 33.5q0 26 19.5 40t42.5 14q20 0 35 -10.5t15 -33.5z" />
    <glyph glyph-name="Eth" unicode="&#xd0;" horiz-adv-x="863" 
d="M311 395q20 -31 20 -53q0 -37 -50 -37q-7 0 -15 1.5t-22 4.5q0 -5 -0.5 -21.5t-1.5 -35.5q-1 -22 -1 -48q17 -4 31.5 -12.5t14.5 -25.5v-2q-1 -11 -12 -19.5t-34 -10.5v-106q0 -8 -13 -16t-27 -8q-1 0 -5.5 12.5t-11 34.5t-14.5 52.5t-15 67.5q-24 -4 -44.5 -17
t-35.5 -32.5t-23.5 -43t-8.5 -47.5q0 -35 16.5 -60t43.5 -40.5t60.5 -23t67.5 -7.5q91 0 158 41t110.5 107t65 149t21.5 167q0 73 -16 141.5t-47 121t-76.5 84t-104.5 31.5q-47 0 -96 -23t-88.5 -66.5t-65 -105.5t-25.5 -140q-30 -11 -49 -11q-24 0 -37 17t-13 42
q0 52 21 98t57 84t84 68t102 50.5t110 31.5t109 11q87 0 151.5 -31.5t107.5 -84.5t64 -122.5t21 -145.5q0 -64 -15 -130t-44.5 -127t-73 -114t-101.5 -92.5t-129.5 -62.5t-156.5 -23q-38 0 -84 8t-86.5 27.5t-67.5 53t-27 84.5q0 27 9.5 52.5t27.5 47t44 38t58 24.5
q-5 29 -9 58.5t-6 61.5q-17 -3 -28.5 -11t-16.5 -24q-13 32 -13 51q0 23 15.5 31.5t39.5 10.5v18q0 51 6.5 96t22.5 78.5t42.5 53.5t65.5 20h5q-11 -71 -17.5 -136.5t-9.5 -131.5q20 1 36.5 4.5t28.5 12.5z" />
    <glyph glyph-name="Ntilde" unicode="&#xd1;" horiz-adv-x="759" 
d="M159 -72q0 -5 -8 -10.5t-18 -9.5q-3 0 -17 28t-33 75t-40 109t-39 130.5t-30 139.5t-12 136q0 54 10 101t33 82.5t60.5 57t93.5 24.5q-14 -86 -20 -196t-6 -228q0 -83 3 -164t9 -156q14 86 30 175.5t34 174t39 159t47 130t57 88t69 32.5q39 0 60.5 -36.5t31.5 -95.5
t12.5 -133.5t3 -151t3.5 -147.5t14 -123q11 -49 26 -69t32 -20q15 0 31 11.5t31 29t28.5 38t23.5 38.5q19 32 34 63l19 -5q-7 -15 -15.5 -30t-17.5 -31q-18 -33 -44.5 -72.5t-57 -74t-63.5 -58t-64 -23.5q-28 0 -49 17t-36.5 46.5t-25 69t-15.5 85t-8 95t-2 98.5
q0 48 1.5 93t3.5 83.5t3.5 67.5t1.5 45q0 38 -2.5 60.5t-9.5 22.5q-14 0 -31 -29t-34.5 -78t-35 -112t-33.5 -131t-30.5 -135.5t-25 -125t-16.5 -100t-6 -60.5zM388 959q13 -11 18.5 -24.5t5.5 -27.5q0 -23 -13.5 -40t-39.5 -17q-9 0 -24.5 5t-33.5 11.5t-37 11.5t-35 5
q-17 0 -29 -7t-17 -24q-14 32 -14 52q0 23 16 30t41 7q20 0 42.5 -2t44.5 -2q23 0 42.5 4t32.5 18z" />
    <glyph glyph-name="Ograve" unicode="&#xd2;" horiz-adv-x="813" 
d="M428 943q5 -16 10.5 -31t17.5 -29t34 -27.5t59 -26.5q0 -3 -3.5 -9.5t-16.5 -6.5q-29 0 -58.5 6.5t-53 17t-38.5 24t-15 28.5q0 14 14.5 30t49.5 24zM609 674q69 -42 104 -120.5t35 -171.5q0 -77 -25 -154.5t-76.5 -139.5t-129.5 -100.5t-184 -38.5q-61 0 -117 19.5
t-98.5 58.5t-68 99t-25.5 141q0 86 22 157.5t58.5 129t84 100.5t98.5 71.5t102 43t94 14.5q34 0 58 -9t39 -24.5t22 -35t7 -40.5zM484 707q11 0 22.5 -1t22.5 -3q-4 20 -18.5 33t-42.5 13q-30 0 -69.5 -20t-75.5 -64t-60.5 -115.5t-24.5 -174.5q0 -94 16.5 -160t43.5 -108
t62.5 -61.5t74.5 -19.5q67 0 119.5 32t87.5 84t53.5 116.5t18.5 130.5q0 78 -26.5 147.5t-82.5 109.5q-6 -23 -21.5 -40.5t-35.5 -29.5t-42.5 -18.5t-44.5 -6.5q-44 0 -63.5 20t-19.5 46q0 16 7 32t20.5 29t33.5 21t45 8zM476 686q-18 0 -31.5 -6.5t-22.5 -17t-13.5 -22.5
t-4.5 -24q0 -14 7.5 -24.5t21.5 -10.5q13 0 29 9t30 23.5t24.5 32t12.5 34.5q-24 6 -53 6z" />
    <glyph glyph-name="Oacute" unicode="&#xd3;" horiz-adv-x="813" 
d="M476 933q35 -8 49.5 -19.5t14.5 -25.5q0 -15 -15 -30t-38.5 -27t-53 -20t-58.5 -8q-13 0 -16.5 6.5t-3.5 9.5q37 13 59 26.5t34 27.5t17.5 29t10.5 31zM609 674q69 -42 104 -120.5t35 -171.5q0 -77 -25 -154.5t-76.5 -139.5t-129.5 -100.5t-184 -38.5q-61 0 -117 19.5
t-98.5 58.5t-68 99t-25.5 141q0 86 22 157.5t58.5 129t84 100.5t98.5 71.5t102 43t94 14.5q34 0 58 -9t39 -24.5t22 -35t7 -40.5zM484 707q11 0 22.5 -1t22.5 -3q-4 20 -18.5 33t-42.5 13q-30 0 -69.5 -20t-75.5 -64t-60.5 -115.5t-24.5 -174.5q0 -94 16.5 -160t43.5 -108
t62.5 -61.5t74.5 -19.5q67 0 119.5 32t87.5 84t53.5 116.5t18.5 130.5q0 78 -26.5 147.5t-82.5 109.5q-6 -23 -21.5 -40.5t-35.5 -29.5t-42.5 -18.5t-44.5 -6.5q-44 0 -63.5 20t-19.5 46q0 16 7 32t20.5 29t33.5 21t45 8zM476 686q-18 0 -31.5 -6.5t-22.5 -17t-13.5 -22.5
t-4.5 -24q0 -14 7.5 -24.5t21.5 -10.5q13 0 29 9t30 23.5t24.5 32t12.5 34.5q-24 6 -53 6z" />
    <glyph glyph-name="Ocircumflex" unicode="&#xd4;" horiz-adv-x="813" 
d="M376 940q3 8 13.5 12t23.5 4q14 0 25.5 -4t14.5 -12q13 -33 32.5 -63.5t55.5 -52.5q0 -3 -3.5 -9.5t-16.5 -6.5q-38 0 -65 17t-42 40q-15 -23 -41.5 -40t-64.5 -17q-13 0 -16.5 6.5t-3.5 9.5q38 23 57.5 54t30.5 62zM609 674q69 -42 104 -120.5t35 -171.5
q0 -77 -25 -154.5t-76.5 -139.5t-129.5 -100.5t-184 -38.5q-61 0 -117 19.5t-98.5 58.5t-68 99t-25.5 141q0 86 22 157.5t58.5 129t84 100.5t98.5 71.5t102 43t94 14.5q34 0 58 -9t39 -24.5t22 -35t7 -40.5zM484 707q11 0 22.5 -1t22.5 -3q-4 20 -18.5 33t-42.5 13
q-30 0 -69.5 -20t-75.5 -64t-60.5 -115.5t-24.5 -174.5q0 -94 16.5 -160t43.5 -108t62.5 -61.5t74.5 -19.5q67 0 119.5 32t87.5 84t53.5 116.5t18.5 130.5q0 78 -26.5 147.5t-82.5 109.5q-6 -23 -21.5 -40.5t-35.5 -29.5t-42.5 -18.5t-44.5 -6.5q-44 0 -63.5 20t-19.5 46
q0 16 7 32t20.5 29t33.5 21t45 8zM476 686q-18 0 -31.5 -6.5t-22.5 -17t-13.5 -22.5t-4.5 -24q0 -14 7.5 -24.5t21.5 -10.5q13 0 29 9t30 23.5t24.5 32t12.5 34.5q-24 6 -53 6z" />
    <glyph glyph-name="Otilde" unicode="&#xd5;" horiz-adv-x="813" 
d="M534 923q13 -11 18.5 -24.5t5.5 -27.5q0 -23 -13.5 -40t-39.5 -17q-9 0 -24.5 5t-33.5 11.5t-37 11.5t-35 5q-17 0 -29 -7t-17 -24q-14 32 -14 52q0 23 16 30t41 7q20 0 42.5 -2t44.5 -2q23 0 42.5 4t32.5 18zM609 674q69 -42 104 -120.5t35 -171.5q0 -77 -25 -154.5
t-76.5 -139.5t-129.5 -100.5t-184 -38.5q-61 0 -117 19.5t-98.5 58.5t-68 99t-25.5 141q0 86 22 157.5t58.5 129t84 100.5t98.5 71.5t102 43t94 14.5q34 0 58 -9t39 -24.5t22 -35t7 -40.5zM484 707q11 0 22.5 -1t22.5 -3q-4 20 -18.5 33t-42.5 13q-30 0 -69.5 -20t-75.5 -64
t-60.5 -115.5t-24.5 -174.5q0 -94 16.5 -160t43.5 -108t62.5 -61.5t74.5 -19.5q67 0 119.5 32t87.5 84t53.5 116.5t18.5 130.5q0 78 -26.5 147.5t-82.5 109.5q-6 -23 -21.5 -40.5t-35.5 -29.5t-42.5 -18.5t-44.5 -6.5q-44 0 -63.5 20t-19.5 46q0 16 7 32t20.5 29t33.5 21
t45 8zM476 686q-18 0 -31.5 -6.5t-22.5 -17t-13.5 -22.5t-4.5 -24q0 -14 7.5 -24.5t21.5 -10.5q13 0 29 9t30 23.5t24.5 32t12.5 34.5q-24 6 -53 6z" />
    <glyph glyph-name="Odieresis" unicode="&#xd6;" horiz-adv-x="813" 
d="M403 863q0 -26 -19.5 -40t-42.5 -14q-20 0 -35 10.5t-15 33.5q0 26 19.5 40t42.5 14q20 0 35 -10.5t15 -33.5zM615 863q0 -26 -19.5 -40t-42.5 -14q-20 0 -35 10.5t-15 33.5q0 26 19.5 40t42.5 14q20 0 35 -10.5t15 -33.5zM609 674q69 -42 104 -120.5t35 -171.5
q0 -77 -25 -154.5t-76.5 -139.5t-129.5 -100.5t-184 -38.5q-61 0 -117 19.5t-98.5 58.5t-68 99t-25.5 141q0 86 22 157.5t58.5 129t84 100.5t98.5 71.5t102 43t94 14.5q34 0 58 -9t39 -24.5t22 -35t7 -40.5zM484 707q11 0 22.5 -1t22.5 -3q-4 20 -18.5 33t-42.5 13
q-30 0 -69.5 -20t-75.5 -64t-60.5 -115.5t-24.5 -174.5q0 -94 16.5 -160t43.5 -108t62.5 -61.5t74.5 -19.5q67 0 119.5 32t87.5 84t53.5 116.5t18.5 130.5q0 78 -26.5 147.5t-82.5 109.5q-6 -23 -21.5 -40.5t-35.5 -29.5t-42.5 -18.5t-44.5 -6.5q-44 0 -63.5 20t-19.5 46
q0 16 7 32t20.5 29t33.5 21t45 8zM476 686q-18 0 -31.5 -6.5t-22.5 -17t-13.5 -22.5t-4.5 -24q0 -14 7.5 -24.5t21.5 -10.5q13 0 29 9t30 23.5t24.5 32t12.5 34.5q-24 6 -53 6z" />
    <glyph glyph-name="multiply" unicode="&#xd7;" horiz-adv-x="440" 
d="M221 286l-86 -86q-5 -5 -13 -8t-15 -3q-6 0 -10.5 2t-4.5 6t5 9l102 102l-86 87q-13 13 -13 26q0 12 19 12l102 -103l87 87q5 5 13 8t15 3q6 0 10.5 -2t4.5 -6t-5 -9l-103 -103l87 -86q13 -13 13 -26q0 -12 -19 -12z" />
    <glyph glyph-name="Oslash" unicode="&#xd8;" horiz-adv-x="813" 
d="M609 674q9 -5 17 -11.5t16 -13.5l143 179q4 -2 8 -6q3 -3 6 -7t3 -10q0 -10 -11 -24l-124 -156q40 -46 60.5 -109.5t20.5 -133.5q0 -77 -25 -154.5t-76.5 -139.5t-129.5 -100.5t-184 -38.5q-46 0 -88.5 10.5t-79.5 32.5l-92 -116q-6 -8 -21 -8q-7 0 -13 2.5t-9 8.5
l105 133q-51 39 -81 102t-30 153q0 86 22 157.5t58.5 129t84 100.5t98.5 71.5t102 43t94 14.5q34 0 58 -9t39 -24.5t22 -35t7 -40.5zM714 389q0 60 -16 116t-49 98l-369 -466q28 -59 69 -85t86 -26q67 0 119.5 32t87.5 84t53.5 116.5t18.5 130.5zM484 707q11 0 22.5 -1
t22.5 -3q-4 20 -18.5 33t-42.5 13q-30 0 -69.5 -20t-75.5 -64t-60.5 -115.5t-24.5 -174.5q0 -63 7 -112t20 -88l361 453l-21 18q-6 -23 -21.5 -40.5t-35.5 -29.5t-42.5 -18.5t-44.5 -6.5q-44 0 -63.5 20t-19.5 46q0 16 7 32t20.5 29t33.5 21t45 8zM476 686q-18 0 -31.5 -6.5
t-22.5 -17t-13.5 -22.5t-4.5 -24q0 -14 7.5 -24.5t21.5 -10.5q13 0 29 9t30 23.5t24.5 32t12.5 34.5q-24 6 -53 6z" />
    <glyph glyph-name="Ugrave" unicode="&#xd9;" horiz-adv-x="739" 
d="M347 876q5 -16 10.5 -31t17.5 -29t34 -27.5t59 -26.5q0 -3 -3.5 -9.5t-16.5 -6.5q-29 0 -58.5 6.5t-53 17t-38.5 24t-15 28.5q0 14 14.5 30t49.5 24zM230 -11q46 0 86.5 32.5t75.5 85.5q-10 40 -14 85t-4 93q0 75 10 149.5t27 134t41 96.5t52 37q23 0 34.5 -32.5
t11.5 -86.5q0 -40 -6 -88.5t-18 -101t-29 -106.5t-39 -104q5 -41 13.5 -75.5t20.5 -59.5t27.5 -39.5t34.5 -14.5q16 0 33.5 11.5t36.5 31t37.5 45t36.5 54.5q19 32 34 63l19 -5q-7 -15 -15.5 -30t-17.5 -31q-18 -32 -43 -63t-52 -55.5t-55 -39.5t-52 -15q-42 0 -70 32
t-45 84q-41 -61 -90.5 -99.5t-108.5 -38.5q-37 0 -68.5 19t-56.5 52.5t-44 78.5t-31.5 97t-19 109t-6.5 113q0 74 11 143t33 122t56 85t79 32q46 0 94 -18q-10 -9 -21 -39t-23 -74t-23 -98.5t-19.5 -113.5t-13.5 -119.5t-5 -114.5q0 -47 4.5 -88t15 -71t26.5 -47t40 -17z
M523 562q0 55 -12 88q-15 -29 -26.5 -67t-19 -82.5t-11 -92t-3.5 -95.5q0 -43 3 -82q16 42 29 86t22 87t13.5 83t4.5 75z" />
    <glyph glyph-name="Uacute" unicode="&#xda;" horiz-adv-x="739" 
d="M412 861q35 -8 49.5 -19.5t14.5 -25.5q0 -15 -15 -30t-38.5 -27t-53 -20t-58.5 -8q-13 0 -16.5 6.5t-3.5 9.5q37 13 59 26.5t34 27.5t17.5 29t10.5 31zM230 -11q46 0 86.5 32.5t75.5 85.5q-10 40 -14 85t-4 93q0 75 10 149.5t27 134t41 96.5t52 37q23 0 34.5 -32.5
t11.5 -86.5q0 -40 -6 -88.5t-18 -101t-29 -106.5t-39 -104q5 -41 13.5 -75.5t20.5 -59.5t27.5 -39.5t34.5 -14.5q16 0 33.5 11.5t36.5 31t37.5 45t36.5 54.5q19 32 34 63l19 -5q-7 -15 -15.5 -30t-17.5 -31q-18 -32 -43 -63t-52 -55.5t-55 -39.5t-52 -15q-42 0 -70 32
t-45 84q-41 -61 -90.5 -99.5t-108.5 -38.5q-37 0 -68.5 19t-56.5 52.5t-44 78.5t-31.5 97t-19 109t-6.5 113q0 74 11 143t33 122t56 85t79 32q46 0 94 -18q-10 -9 -21 -39t-23 -74t-23 -98.5t-19.5 -113.5t-13.5 -119.5t-5 -114.5q0 -47 4.5 -88t15 -71t26.5 -47t40 -17z
M523 562q0 55 -12 88q-15 -29 -26.5 -67t-19 -82.5t-11 -92t-3.5 -95.5q0 -43 3 -82q16 42 29 86t22 87t13.5 83t4.5 75z" />
    <glyph glyph-name="Ucircumflex" unicode="&#xdb;" horiz-adv-x="739" 
d="M362 867q3 8 13.5 12t23.5 4q14 0 25.5 -4t14.5 -12q13 -33 32.5 -63.5t55.5 -52.5q0 -3 -3.5 -9.5t-16.5 -6.5q-38 0 -65 17t-42 40q-15 -23 -41.5 -40t-64.5 -17q-13 0 -16.5 6.5t-3.5 9.5q38 23 57.5 54t30.5 62zM230 -11q46 0 86.5 32.5t75.5 85.5q-10 40 -14 85
t-4 93q0 75 10 149.5t27 134t41 96.5t52 37q23 0 34.5 -32.5t11.5 -86.5q0 -40 -6 -88.5t-18 -101t-29 -106.5t-39 -104q5 -41 13.5 -75.5t20.5 -59.5t27.5 -39.5t34.5 -14.5q16 0 33.5 11.5t36.5 31t37.5 45t36.5 54.5q19 32 34 63l19 -5q-7 -15 -15.5 -30t-17.5 -31
q-18 -32 -43 -63t-52 -55.5t-55 -39.5t-52 -15q-42 0 -70 32t-45 84q-41 -61 -90.5 -99.5t-108.5 -38.5q-37 0 -68.5 19t-56.5 52.5t-44 78.5t-31.5 97t-19 109t-6.5 113q0 74 11 143t33 122t56 85t79 32q46 0 94 -18q-10 -9 -21 -39t-23 -74t-23 -98.5t-19.5 -113.5
t-13.5 -119.5t-5 -114.5q0 -47 4.5 -88t15 -71t26.5 -47t40 -17zM523 562q0 55 -12 88q-15 -29 -26.5 -67t-19 -82.5t-11 -92t-3.5 -95.5q0 -43 3 -82q16 42 29 86t22 87t13.5 83t4.5 75z" />
    <glyph glyph-name="Udieresis" unicode="&#xdc;" horiz-adv-x="739" 
d="M330 848q0 -26 -19.5 -40t-42.5 -14q-20 0 -35 10.5t-15 33.5q0 26 19.5 40t42.5 14q20 0 35 -10.5t15 -33.5zM542 848q0 -26 -19.5 -40t-42.5 -14q-20 0 -35 10.5t-15 33.5q0 26 19.5 40t42.5 14q20 0 35 -10.5t15 -33.5zM230 -11q46 0 86.5 32.5t75.5 85.5
q-10 40 -14 85t-4 93q0 75 10 149.5t27 134t41 96.5t52 37q23 0 34.5 -32.5t11.5 -86.5q0 -40 -6 -88.5t-18 -101t-29 -106.5t-39 -104q5 -41 13.5 -75.5t20.5 -59.5t27.5 -39.5t34.5 -14.5q16 0 33.5 11.5t36.5 31t37.5 45t36.5 54.5q19 32 34 63l19 -5q-7 -15 -15.5 -30
t-17.5 -31q-18 -32 -43 -63t-52 -55.5t-55 -39.5t-52 -15q-42 0 -70 32t-45 84q-41 -61 -90.5 -99.5t-108.5 -38.5q-37 0 -68.5 19t-56.5 52.5t-44 78.5t-31.5 97t-19 109t-6.5 113q0 74 11 143t33 122t56 85t79 32q46 0 94 -18q-10 -9 -21 -39t-23 -74t-23 -98.5
t-19.5 -113.5t-13.5 -119.5t-5 -114.5q0 -47 4.5 -88t15 -71t26.5 -47t40 -17zM523 562q0 55 -12 88q-15 -29 -26.5 -67t-19 -82.5t-11 -92t-3.5 -95.5q0 -43 3 -82q16 42 29 86t22 87t13.5 83t4.5 75z" />
    <glyph glyph-name="Yacute" unicode="&#xdd;" horiz-adv-x="611" 
d="M322 794q35 -8 49.5 -19.5t14.5 -25.5q0 -15 -15 -30t-38.5 -27t-53 -20t-58.5 -8q-13 0 -16.5 6.5t-3.5 9.5q37 13 59 26.5t34 27.5t17.5 29t10.5 31zM93 -436q0 70 30 140.5t76.5 135.5t103 124t110.5 107l-16 51q-43 -67 -97 -103.5t-108 -36.5q-48 0 -92.5 31
t-79 97.5t-55 171.5t-20.5 253q0 67 5.5 114.5t19 76.5t36.5 42.5t58 13.5t91 -14q-10 -9 -17.5 -38t-12.5 -70.5t-7.5 -92.5t-2.5 -106q0 -116 10.5 -196.5t29 -131t42.5 -73t51 -22.5q35 0 70.5 32.5t66.5 86.5q-23 72 -38.5 133t-15.5 103q0 48 10 87.5t25.5 67.5
t34 43.5t35.5 15.5q23 0 39.5 -30t16.5 -96q0 -84 -15.5 -156t-41.5 -132q13 -60 29 -123t30.5 -122.5t24.5 -113.5t10 -97q0 -96 -26.5 -175.5t-67.5 -135.5t-91 -87t-97 -31q-32 0 -60 15t-49 46t-33 79.5t-12 115.5zM498 -287q0 33 -6.5 73t-18 84t-25.5 90.5t-29 93.5
q-57 -54 -90.5 -105t-51.5 -102t-23.5 -102.5t-5.5 -106.5q0 -46 8.5 -79.5t23 -56t33 -33.5t39.5 -11q26 0 52 16.5t47 49t34 80t13 109.5zM413 368q0 -58 12 -124q22 57 35 122t13 132q0 40 -4 57.5t-10 17.5q-7 0 -15 -18t-15 -47t-11.5 -66t-4.5 -74z" />
    <glyph glyph-name="Thorn" unicode="&#xde;" horiz-adv-x="664" 
d="M729 520q0 -39 -25.5 -82t-70 -81.5t-103 -68.5t-124.5 -43q2 -76 3 -142.5t1 -116.5q0 -18 -4 -35.5t-14 -31.5t-25.5 -23t-39.5 -9q-90 0 -156.5 26t-110.5 70.5t-66 102t-22 120.5q0 59 19 118.5t56.5 113.5t93.5 98t130 72q1 55 9.5 104t26 87.5t45.5 65t69 36.5
q-8 -49 -11.5 -116t-5.5 -145q42 6 88 6q64 0 109 -10t73.5 -27t41.5 -40t13 -49zM357 -45q0 9 -5.5 38.5t-13.5 70t-16.5 86.5t-15.5 87q-41 2 -64.5 11t-23.5 21q0 7 11 15q37 -16 72 -19q-12 75 -20.5 151.5t-9.5 148.5q-34 -26 -59.5 -65t-42.5 -84.5t-25.5 -96.5
t-8.5 -101q0 -60 12 -115t35 -97.5t58 -68t81 -25.5q16 0 26 10t10 33zM568 491q0 49 -39.5 83.5t-125.5 35.5v-91v-118.5t2 -116.5q38 17 68 41t51 52t32.5 57.5t11.5 56.5z" />
    <glyph glyph-name="germandbls" unicode="&#xdf;" horiz-adv-x="419" 
d="M-14 325q-1 45 -2.5 88t-1.5 84q0 79 17 135t44 92t59.5 52.5t63.5 16.5q44 0 75.5 -29.5t31.5 -83.5q0 -29 -7 -63.5t-18.5 -70t-25.5 -70.5t-28 -64.5t-26.5 -51.5t-19.5 -32q48 -15 81.5 -37t55 -48.5t31.5 -55t10 -56.5q0 -29 -10 -56t-29 -47.5t-45 -32.5t-59 -12
q-49 0 -85 25q-9 -54 -36.5 -87.5t-82.5 -33.5q-14 0 -31 5q24 70 32 152t8 168v41t-1 41h-91q-21 0 -29.5 3.5t-8.5 8.5q0 7 15 19h113zM103 57q8 -20 23.5 -29t32.5 -9q16 0 30 9.5t23.5 25.5t15 37t5.5 45q0 26 -7 52.5t-22.5 50.5t-40 43.5t-59.5 30.5q15 12 30 46
t27.5 78.5t20 92t7.5 86.5q0 50 -21.5 73t-49.5 23q-17 0 -34.5 -8.5t-31.5 -25t-22.5 -40.5t-8.5 -55q0 -28 13 -85.5t28 -129t28 -148.5t13 -144v-19z" />
    <glyph glyph-name="agrave" unicode="&#xe0;" horiz-adv-x="506" 
d="M139 501q5 -16 10.5 -31t17.5 -29t34 -27.5t59 -26.5q0 -3 -3.5 -9.5t-16.5 -6.5q-29 0 -58.5 6.5t-53 17t-38.5 24t-15 28.5q0 14 14.5 30t49.5 24zM129 27q45 0 80 27q-13 23 -19.5 49t-6.5 51q0 39 18 67t59 28q25 0 37 -16t12 -41q0 -26 -12 -57.5t-35 -60.5
q8 -23 20.5 -37.5t31.5 -14.5q32 0 71 31.5t80 93.5q10 15 18 31l16 32l19 -5q-7 -15 -15 -30.5t-18 -30.5q-47 -72 -96.5 -112.5t-90.5 -40.5q-23 0 -41.5 11.5t-33.5 29.5q-29 -24 -66.5 -39.5t-82.5 -15.5q-65 0 -95 32.5t-30 78.5q0 37 17.5 76.5t50 72.5t78 54
t102.5 21q32 0 49 -10.5t17 -21.5q0 -8 -10 -15t-32 -9q-7 23 -22.5 28.5t-32.5 5.5q-23 0 -41 -15t-31 -39t-19.5 -53.5t-6.5 -57.5q0 -40 14.5 -69t46.5 -29zM248 168q0 -33 6 -64q17 26 25 52.5t8 46.5q0 16 -4.5 25.5t-15.5 9.5q-9 0 -14 -20.5t-5 -49.5z" />
    <glyph glyph-name="aacute" unicode="&#xe1;" horiz-adv-x="506" 
d="M211 501q35 -8 49.5 -19.5t14.5 -25.5q0 -15 -15 -30t-38.5 -27t-53 -20t-58.5 -8q-13 0 -16.5 6.5t-3.5 9.5q37 13 59 26.5t34 27.5t17.5 29t10.5 31zM248 168q0 -33 6 -64q17 26 25 52.5t8 46.5q0 16 -4.5 25.5t-15.5 9.5q-9 0 -14 -20.5t-5 -49.5zM129 27q45 0 80 27
q-13 23 -19.5 49t-6.5 51q0 39 18 67t59 28q25 0 37 -16t12 -41q0 -26 -12 -57.5t-35 -60.5q8 -23 20.5 -37.5t31.5 -14.5q32 0 71 31.5t80 93.5q10 15 18 31l16 32l19 -5q-7 -15 -15 -30.5t-18 -30.5q-47 -72 -96.5 -112.5t-90.5 -40.5q-23 0 -41.5 11.5t-33.5 29.5
q-29 -24 -66.5 -39.5t-82.5 -15.5q-65 0 -95 32.5t-30 78.5q0 37 17.5 76.5t50 72.5t78 54t102.5 21q32 0 49 -10.5t17 -21.5q0 -8 -10 -15t-32 -9q-7 23 -22.5 28.5t-32.5 5.5q-23 0 -41 -15t-31 -39t-19.5 -53.5t-6.5 -57.5q0 -40 14.5 -69t46.5 -29z" />
    <glyph glyph-name="acircumflex" unicode="&#xe2;" horiz-adv-x="506" 
d="M124 494q3 8 13.5 12t23.5 4q14 0 25.5 -4t14.5 -12q13 -33 32.5 -63.5t55.5 -52.5q0 -3 -3.5 -9.5t-16.5 -6.5q-38 0 -65 17t-42 40q-15 -23 -41.5 -40t-64.5 -17q-13 0 -16.5 6.5t-3.5 9.5q38 23 57.5 54t30.5 62zM129 27q45 0 80 27q-13 23 -19.5 49t-6.5 51
q0 39 18 67t59 28q25 0 37 -16t12 -41q0 -26 -12 -57.5t-35 -60.5q8 -23 20.5 -37.5t31.5 -14.5q32 0 71 31.5t80 93.5q10 15 18 31l16 32l19 -5q-7 -15 -15 -30.5t-18 -30.5q-47 -72 -96.5 -112.5t-90.5 -40.5q-23 0 -41.5 11.5t-33.5 29.5q-29 -24 -66.5 -39.5
t-82.5 -15.5q-65 0 -95 32.5t-30 78.5q0 37 17.5 76.5t50 72.5t78 54t102.5 21q32 0 49 -10.5t17 -21.5q0 -8 -10 -15t-32 -9q-7 23 -22.5 28.5t-32.5 5.5q-23 0 -41 -15t-31 -39t-19.5 -53.5t-6.5 -57.5q0 -40 14.5 -69t46.5 -29zM248 168q0 -33 6 -64q17 26 25 52.5
t8 46.5q0 16 -4.5 25.5t-15.5 9.5q-9 0 -14 -20.5t-5 -49.5z" />
    <glyph glyph-name="atilde" unicode="&#xe3;" horiz-adv-x="506" 
d="M263 489q13 -11 18.5 -24.5t5.5 -27.5q0 -23 -13.5 -40t-39.5 -17q-9 0 -24.5 5t-33.5 11.5t-37 11.5t-35 5q-17 0 -29 -7t-17 -24q-14 32 -14 52q0 23 16 30t41 7q20 0 42.5 -2t44.5 -2q23 0 42.5 4t32.5 18zM129 27q45 0 80 27q-13 23 -19.5 49t-6.5 51q0 39 18 67
t59 28q25 0 37 -16t12 -41q0 -26 -12 -57.5t-35 -60.5q8 -23 20.5 -37.5t31.5 -14.5q32 0 71 31.5t80 93.5q10 15 18 31l16 32l19 -5q-7 -15 -15 -30.5t-18 -30.5q-47 -72 -96.5 -112.5t-90.5 -40.5q-23 0 -41.5 11.5t-33.5 29.5q-29 -24 -66.5 -39.5t-82.5 -15.5
q-65 0 -95 32.5t-30 78.5q0 37 17.5 76.5t50 72.5t78 54t102.5 21q32 0 49 -10.5t17 -21.5q0 -8 -10 -15t-32 -9q-7 23 -22.5 28.5t-32.5 5.5q-23 0 -41 -15t-31 -39t-19.5 -53.5t-6.5 -57.5q0 -40 14.5 -69t46.5 -29zM248 168q0 -33 6 -64q17 26 25 52.5t8 46.5
q0 16 -4.5 25.5t-15.5 9.5q-9 0 -14 -20.5t-5 -49.5z" />
    <glyph glyph-name="adieresis" unicode="&#xe4;" horiz-adv-x="506" 
d="M108 435q0 -26 -19.5 -40t-42.5 -14q-20 0 -35 10.5t-15 33.5q0 26 19.5 40t42.5 14q20 0 35 -10.5t15 -33.5zM320 435q0 -26 -19.5 -40t-42.5 -14q-20 0 -35 10.5t-15 33.5q0 26 19.5 40t42.5 14q20 0 35 -10.5t15 -33.5zM129 27q45 0 80 27q-13 23 -19.5 49t-6.5 51
q0 39 18 67t59 28q25 0 37 -16t12 -41q0 -26 -12 -57.5t-35 -60.5q8 -23 20.5 -37.5t31.5 -14.5q32 0 71 31.5t80 93.5q10 15 18 31l16 32l19 -5q-7 -15 -15 -30.5t-18 -30.5q-47 -72 -96.5 -112.5t-90.5 -40.5q-23 0 -41.5 11.5t-33.5 29.5q-29 -24 -66.5 -39.5
t-82.5 -15.5q-65 0 -95 32.5t-30 78.5q0 37 17.5 76.5t50 72.5t78 54t102.5 21q32 0 49 -10.5t17 -21.5q0 -8 -10 -15t-32 -9q-7 23 -22.5 28.5t-32.5 5.5q-23 0 -41 -15t-31 -39t-19.5 -53.5t-6.5 -57.5q0 -40 14.5 -69t46.5 -29zM248 168q0 -33 6 -64q17 26 25 52.5
t8 46.5q0 16 -4.5 25.5t-15.5 9.5q-9 0 -14 -20.5t-5 -49.5z" />
    <glyph glyph-name="aring" unicode="&#xe5;" horiz-adv-x="506" 
d="M129 27q45 0 80 27q-13 23 -19.5 49t-6.5 51q0 39 18 67t59 28q25 0 37 -16t12 -41q0 -26 -12 -57.5t-35 -60.5q8 -23 20.5 -37.5t31.5 -14.5q32 0 71 31.5t80 93.5q10 15 18 31l16 32l19 -5q-7 -15 -15 -30.5t-18 -30.5q-47 -72 -96.5 -112.5t-90.5 -40.5
q-23 0 -41.5 11.5t-33.5 29.5q-29 -24 -66.5 -39.5t-82.5 -15.5q-65 0 -95 32.5t-30 78.5q0 37 17.5 76.5t50 72.5t78 54t102.5 21q32 0 49 -10.5t17 -21.5q0 -8 -10 -15t-32 -9q-7 23 -22.5 28.5t-32.5 5.5q-23 0 -41 -15t-31 -39t-19.5 -53.5t-6.5 -57.5q0 -40 14.5 -69
t46.5 -29zM248 168q0 -33 6 -64q17 26 25 52.5t8 46.5q0 16 -4.5 25.5t-15.5 9.5q-9 0 -14 -20.5t-5 -49.5zM158 486q34 0 50.5 -17.5t16.5 -39.5t-17.5 -40.5t-52.5 -18.5q-33 0 -50.5 18.5t-17.5 40.5t17.5 39.5t53.5 17.5zM159 404q13 0 19 7.5t6 16.5q0 10 -7 18.5
t-23 8.5q-13 0 -19.5 -8t-6.5 -17q0 -10 7.5 -18t23.5 -8z" />
    <glyph glyph-name="ae" unicode="&#xe6;" horiz-adv-x="632" 
d="M129 27q34 0 64 16q-9 21 -9 44q0 38 20 79.5t51.5 76.5t70.5 57.5t77 22.5t54.5 -17.5t16.5 -43.5q0 -25 -13 -53.5t-35.5 -52.5t-53 -40t-65.5 -16q9 -32 32 -54t65 -22q27 0 53.5 10t51 27t45.5 39t37 47q10 15 18 31l16 32l19 -5q-7 -15 -15 -30.5t-18 -30.5
q-24 -38 -55.5 -68.5t-67.5 -51.5t-75.5 -32.5t-78.5 -11.5q-48 0 -78.5 11t-47.5 30q-27 -20 -60.5 -32t-73.5 -12q-65 0 -95 32.5t-30 78.5q0 37 17.5 76.5t50 72.5t78 54t102.5 21q32 0 49 -10.5t17 -21.5q0 -8 -10 -15t-32 -9q-7 23 -22.5 28.5t-32.5 5.5q-23 0 -41 -15
t-31 -39t-19.5 -53.5t-6.5 -57.5q0 -40 14.5 -69t46.5 -29zM301 149q0 -19 3 -35q18 0 35.5 16t32 39t23 48.5t8.5 44.5q0 13 -5 21t-16 8q-18 0 -32.5 -12.5t-25.5 -32.5t-17 -45.5t-6 -51.5z" />
    <glyph glyph-name="ccedilla" unicode="&#xe7;" horiz-adv-x="412" 
d="M371 147q10 15 18 31l16 32l19 -5q-7 -15 -15 -30.5t-18 -30.5q-24 -38 -58.5 -68.5t-74 -51.5t-82 -32.5t-81.5 -11.5q-9 -7 -14.5 -15t-6.5 -22q34 -2 56 -10t35 -19t18 -23.5t5 -22.5q0 -19 -10.5 -33t-27 -23.5t-37.5 -14.5t-41 -5q-32 0 -56 12t-24 36q0 12 6 30
q14 -6 27.5 -8.5t24.5 -2.5q28 0 44.5 11.5t16.5 23.5q0 10 -11.5 17t-37.5 7t-26 19q0 11 6.5 23t14.5 23q-56 9 -82 41.5t-26 75.5q0 36 17 74.5t48.5 70t75 52t97.5 20.5q18 0 33.5 -6t26.5 -15t17 -19.5t6 -20.5q0 -11 -9.5 -19t-29.5 -8h-8t-9 1q-3 35 -15.5 49.5
t-28.5 14.5q-24 0 -42.5 -13t-31 -34.5t-19.5 -48t-7 -53.5q0 -24 5.5 -45.5t17 -38.5t29 -27t42.5 -10q27 0 56.5 10t57.5 27t52.5 39t40.5 47z" />
    <glyph glyph-name="egrave" unicode="&#xe8;" 
d="M166 262q0 -19 -8.5 -44.5t-23 -48.5t-32 -39t-35.5 -16q-3 16 -3 35q0 26 6 51.5t17 45.5t25.5 32.5t32.5 12.5q11 0 16 -8t5 -21zM167 24q-42 0 -65 22t-32 54q34 0 64.5 16t53.5 40t36 52.5t13 53.5q0 26 -16.5 43.5t-54.5 17.5t-77 -22.5t-70.5 -57.5t-51.5 -76.5
t-20 -79.5q0 -22 8 -41.5t26 -34t46.5 -23t69.5 -8.5q39 0 78.5 11.5t75.5 32.5t67.5 51.5t55.5 68.5q10 15 18 30.5t15 30.5l-19 5l-16 -32t-18 -31q-16 -25 -37 -47t-45.5 -39t-51 -27t-53.5 -10zM89 501q5 -16 10.5 -31t17.5 -29t34 -27.5t59 -26.5q0 -3 -3.5 -9.5
t-16.5 -6.5q-29 0 -58.5 6.5t-53 17t-38.5 24t-15 28.5q0 14 14.5 30t49.5 24z" />
    <glyph glyph-name="eacute" unicode="&#xe9;" 
d="M166 262q0 -19 -8.5 -44.5t-23 -48.5t-32 -39t-35.5 -16q-3 16 -3 35q0 26 6 51.5t17 45.5t25.5 32.5t32.5 12.5q11 0 16 -8t5 -21zM167 24q-42 0 -65 22t-32 54q34 0 64.5 16t53.5 40t36 52.5t13 53.5q0 26 -16.5 43.5t-54.5 17.5t-77 -22.5t-70.5 -57.5t-51.5 -76.5
t-20 -79.5q0 -22 8 -41.5t26 -34t46.5 -23t69.5 -8.5q39 0 78.5 11.5t75.5 32.5t67.5 51.5t55.5 68.5q10 15 18 30.5t15 30.5l-19 5l-16 -32t-18 -31q-16 -25 -37 -47t-45.5 -39t-51 -27t-53.5 -10zM161 501q35 -8 49.5 -19.5t14.5 -25.5q0 -15 -15 -30t-38.5 -27t-53 -20
t-58.5 -8q-13 0 -16.5 6.5t-3.5 9.5q37 13 59 26.5t34 27.5t17.5 29t10.5 31z" />
    <glyph glyph-name="ecircumflex" unicode="&#xea;" 
d="M166 262q0 -19 -8.5 -44.5t-23 -48.5t-32 -39t-35.5 -16q-3 16 -3 35q0 26 6 51.5t17 45.5t25.5 32.5t32.5 12.5q11 0 16 -8t5 -21zM167 24q-42 0 -65 22t-32 54q34 0 64.5 16t53.5 40t36 52.5t13 53.5q0 26 -16.5 43.5t-54.5 17.5t-77 -22.5t-70.5 -57.5t-51.5 -76.5
t-20 -79.5q0 -22 8 -41.5t26 -34t46.5 -23t69.5 -8.5q39 0 78.5 11.5t75.5 32.5t67.5 51.5t55.5 68.5q10 15 18 30.5t15 30.5l-19 5l-16 -32t-18 -31q-16 -25 -37 -47t-45.5 -39t-51 -27t-53.5 -10zM56 494q3 8 13.5 12t23.5 4q14 0 25.5 -4t14.5 -12q13 -33 32.5 -63.5
t55.5 -52.5q0 -3 -3.5 -9.5t-16.5 -6.5q-38 0 -65 17t-42 40q-15 -23 -41.5 -40t-64.5 -17q-13 0 -16.5 6.5t-3.5 9.5q38 23 57.5 54t30.5 62z" />
    <glyph glyph-name="edieresis" unicode="&#xeb;" 
d="M166 262q0 -19 -8.5 -44.5t-23 -48.5t-32 -39t-35.5 -16q-3 16 -3 35q0 26 6 51.5t17 45.5t25.5 32.5t32.5 12.5q11 0 16 -8t5 -21zM167 24q-42 0 -65 22t-32 54q34 0 64.5 16t53.5 40t36 52.5t13 53.5q0 26 -16.5 43.5t-54.5 17.5t-77 -22.5t-70.5 -57.5t-51.5 -76.5
t-20 -79.5q0 -22 8 -41.5t26 -34t46.5 -23t69.5 -8.5q39 0 78.5 11.5t75.5 32.5t67.5 51.5t55.5 68.5q10 15 18 30.5t15 30.5l-19 5l-16 -32t-18 -31q-16 -25 -37 -47t-45.5 -39t-51 -27t-53.5 -10zM275 435q0 -26 -19.5 -40t-42.5 -14q-20 0 -35 10.5t-15 33.5
q0 26 19.5 40t42.5 14q20 0 35 -10.5t15 -33.5zM63 435q0 -26 -19.5 -40t-42.5 -14q-20 0 -35 10.5t-15 33.5q0 26 19.5 40t42.5 14q20 0 35 -10.5t15 -33.5z" />
    <glyph glyph-name="igrave" unicode="&#xec;" horiz-adv-x="301" 
d="M313 205q-7 -15 -15.5 -30t-17.5 -31q-42 -75 -98.5 -116.5t-107.5 -41.5q-26 0 -49 11.5t-40 35.5t-26.5 61.5t-9.5 88.5q0 17 8.5 30t22 21.5t29.5 13t31 4.5q22 0 34 -9q-2 -18 -3.5 -35.5t-1.5 -33.5q0 -60 16.5 -97t48.5 -37q24 0 55.5 25t70.5 82q10 15 18 31
l16 32zM-8 501q5 -16 10.5 -31t17.5 -29t34 -27.5t59 -26.5q0 -3 -3.5 -9.5t-16.5 -6.5q-29 0 -58.5 6.5t-53 17t-38.5 24t-15 28.5q0 14 14.5 30t49.5 24z" />
    <glyph glyph-name="iacute" unicode="&#xed;" horiz-adv-x="301" 
d="M313 205q-7 -15 -15.5 -30t-17.5 -31q-42 -75 -98.5 -116.5t-107.5 -41.5q-26 0 -49 11.5t-40 35.5t-26.5 61.5t-9.5 88.5q0 17 8.5 30t22 21.5t29.5 13t31 4.5q22 0 34 -9q-2 -18 -3.5 -35.5t-1.5 -33.5q0 -60 16.5 -97t48.5 -37q24 0 55.5 25t70.5 82q10 15 18 31
l16 32zM69 501q35 -8 49.5 -19.5t14.5 -25.5q0 -15 -15 -30t-38.5 -27t-53 -20t-58.5 -8q-13 0 -16.5 6.5t-3.5 9.5q37 13 59 26.5t34 27.5t17.5 29t10.5 31z" />
    <glyph glyph-name="icircumflex" unicode="&#xee;" horiz-adv-x="301" 
d="M313 205q-7 -15 -15.5 -30t-17.5 -31q-42 -75 -98.5 -116.5t-107.5 -41.5q-26 0 -49 11.5t-40 35.5t-26.5 61.5t-9.5 88.5q0 17 8.5 30t22 21.5t29.5 13t31 4.5q22 0 34 -9q-2 -18 -3.5 -35.5t-1.5 -33.5q0 -60 16.5 -97t48.5 -37q24 0 55.5 25t70.5 82q10 15 18 31
l16 32zM-1 494q3 8 13.5 12t23.5 4q14 0 25.5 -4t14.5 -12q13 -33 32.5 -63.5t55.5 -52.5q0 -3 -3.5 -9.5t-16.5 -6.5q-38 0 -65 17t-42 40q-15 -23 -41.5 -40t-64.5 -17q-13 0 -16.5 6.5t-3.5 9.5q38 23 57.5 54t30.5 62z" />
    <glyph glyph-name="idieresis" unicode="&#xef;" horiz-adv-x="301" 
d="M197 435q0 -26 -19.5 -40t-42.5 -14q-20 0 -35 10.5t-15 33.5q0 26 19.5 40t42.5 14q20 0 35 -10.5t15 -33.5zM-15 435q0 -26 -19.5 -40t-42.5 -14q-20 0 -35 10.5t-15 33.5q0 26 19.5 40t42.5 14q20 0 35 -10.5t15 -33.5zM313 205q-7 -15 -15.5 -30t-17.5 -31
q-42 -75 -98.5 -116.5t-107.5 -41.5q-26 0 -49 11.5t-40 35.5t-26.5 61.5t-9.5 88.5q0 17 8.5 30t22 21.5t29.5 13t31 4.5q22 0 34 -9q-2 -18 -3.5 -35.5t-1.5 -33.5q0 -60 16.5 -97t48.5 -37q24 0 55.5 25t70.5 82q10 15 18 31l16 32z" />
    <glyph glyph-name="eth" unicode="&#xf0;" horiz-adv-x="550" 
d="M77 -24q-65 0 -96.5 32.5t-31.5 78.5t16.5 81.5t43 62.5t60 45t68.5 28q-5 20 -8.5 41t-5.5 42q-19 -2 -33 -10.5t-19 -25.5q-13 32 -13 51q0 24 16.5 32.5t42.5 10.5q-3 37 -3 74q0 66 15.5 118t40.5 87.5t56.5 54.5t62.5 19q26 0 50 -13.5t42.5 -42t29.5 -72.5t11 -104
q0 -62 -10.5 -130.5t-31.5 -135.5t-51.5 -127t-70.5 -105q16 -34 37.5 -53t50.5 -19q28 0 51.5 15t44 37.5t37 49t30.5 49.5q19 32 34 63l19 -5q-7 -15 -16 -30t-17 -31q-12 -23 -30 -53t-42 -57t-52.5 -45.5t-59.5 -18.5t-59 19.5t-52 54.5q-34 -32 -73 -50t-84 -18z
M214 298q2 -60 11 -114t25 -96q36 40 63.5 99t47 126t29.5 136.5t10 129.5q0 78 -17.5 116t-42.5 38q-18 0 -37.5 -19t-37 -55.5t-30.5 -91t-19 -125.5h2q23 0 42 3.5t33 13.5q20 -31 20 -53q0 -37 -50 -37q-8 0 -21 2.5t-29 6.5v-61q5 1 15 1q36 0 59.5 -9.5t23.5 -28.5
q0 -8 -10 -15t-32 -9q-7 21 -22.5 31t-32.5 11zM223 62q-26 43 -46.5 98t-34.5 117q-18 -12 -31.5 -30.5t-22.5 -39.5t-13.5 -43.5t-4.5 -42.5q0 -38 16 -66t47 -28q24 0 46.5 9t43.5 26z" />
    <glyph glyph-name="ntilde" unicode="&#xf1;" horiz-adv-x="563" 
d="M266 489q13 -11 18.5 -24.5t5.5 -27.5q0 -23 -13.5 -40t-39.5 -17q-9 0 -25 4t-34.5 9t-38.5 9t-36 4t-27 -5t-15 -19q-14 32 -14 52q0 23 16 30t41 7q20 0 42.5 -2t44.5 -2q23 0 42.5 4t32.5 18zM101 74q13 38 26.5 73t32 62t44.5 43t65 16q25 0 46 -9q0 -8 -0.5 -15.5
t-0.5 -15.5q0 -92 23 -136.5t59 -44.5q58 0 126 100q10 15 18 31l16 32l19 -5q-7 -15 -15 -30.5t-18 -30.5q-44 -68 -100 -108.5t-107 -40.5q-26 0 -49.5 12t-41.5 37.5t-30.5 66t-16.5 97.5q-18 -16 -33 -49.5t-28.5 -69t-24.5 -66.5t-20 -43q-5 -2 -9 -3q-9 -3 -21 -3
q-24 0 -44 25.5t-34.5 59.5t-22.5 69t-8 55q0 19 6 38t18 35t31 26t46 10q10 0 21.5 -1.5t23.5 -5.5q-15 -61 -20 -114.5t-5 -91.5q0 -29 2 -41t5 -12q2 0 5 5t5.5 12.5t5.5 16t5 14.5z" />
    <glyph glyph-name="ograve" unicode="&#xf2;" 
d="M78 501q5 -16 10.5 -31t17.5 -29t34 -27.5t59 -26.5q0 -3 -3.5 -9.5t-16.5 -6.5q-29 0 -58.5 6.5t-53 17t-38.5 24t-15 28.5q0 14 14.5 30t49.5 24zM-51 94q0 38 16 76.5t55 67.5q-1 6 -1.5 12.5t-0.5 12.5q0 32 23 51t55 19q24 0 50.5 -12.5t49 -37t37 -61.5t14.5 -86
q0 -17 -3 -32q40 4 77.5 28.5t66.5 77.5l19 -5q-33 -62 -77 -90t-90 -32q-8 -27 -24 -47.5t-37 -34t-45.5 -20t-48.5 -6.5q-26 0 -50.5 7.5t-43.5 22.5t-30.5 37.5t-11.5 51.5zM105 264q-16 -17 -23.5 -37t-11.5 -40q24 -34 62.5 -57t82.5 -27v11q0 36 -17 68.5t-41 57
t-50 38.5t-43 14q-22 0 -22 -21v-9t1 -9q21 12 48 21zM212 83q-42 3 -79.5 22t-65.5 48v-25q0 -24 7.5 -43t19 -32t26.5 -20t30 -7q20 0 37.5 14t24.5 43z" />
    <glyph glyph-name="oacute" unicode="&#xf3;" 
d="M164 501q35 -8 49.5 -19.5t14.5 -25.5q0 -15 -15 -30t-38.5 -27t-53 -20t-58.5 -8q-13 0 -16.5 6.5t-3.5 9.5q37 13 59 26.5t34 27.5t17.5 29t10.5 31zM-51 94q0 38 16 76.5t55 67.5q-1 6 -1.5 12.5t-0.5 12.5q0 32 23 51t55 19q24 0 50.5 -12.5t49 -37t37 -61.5
t14.5 -86q0 -17 -3 -32q40 4 77.5 28.5t66.5 77.5l19 -5q-33 -62 -77 -90t-90 -32q-8 -27 -24 -47.5t-37 -34t-45.5 -20t-48.5 -6.5q-26 0 -50.5 7.5t-43.5 22.5t-30.5 37.5t-11.5 51.5zM105 264q-16 -17 -23.5 -37t-11.5 -40q24 -34 62.5 -57t82.5 -27v11q0 36 -17 68.5
t-41 57t-50 38.5t-43 14q-22 0 -22 -21v-9t1 -9q21 12 48 21zM212 83q-42 3 -79.5 22t-65.5 48v-25q0 -24 7.5 -43t19 -32t26.5 -20t30 -7q20 0 37.5 14t24.5 43z" />
    <glyph glyph-name="ocircumflex" unicode="&#xf4;" 
d="M66 494q3 8 13.5 12t23.5 4q14 0 25.5 -4t14.5 -12q13 -33 32.5 -63.5t55.5 -52.5q0 -3 -3.5 -9.5t-16.5 -6.5q-38 0 -65 17t-42 40q-15 -23 -41.5 -40t-64.5 -17q-13 0 -16.5 6.5t-3.5 9.5q38 23 57.5 54t30.5 62zM-51 94q0 38 16 76.5t55 67.5q-1 6 -1.5 12.5
t-0.5 12.5q0 32 23 51t55 19q24 0 50.5 -12.5t49 -37t37 -61.5t14.5 -86q0 -17 -3 -32q40 4 77.5 28.5t66.5 77.5l19 -5q-33 -62 -77 -90t-90 -32q-8 -27 -24 -47.5t-37 -34t-45.5 -20t-48.5 -6.5q-26 0 -50.5 7.5t-43.5 22.5t-30.5 37.5t-11.5 51.5zM105 264
q-16 -17 -23.5 -37t-11.5 -40q24 -34 62.5 -57t82.5 -27v11q0 36 -17 68.5t-41 57t-50 38.5t-43 14q-22 0 -22 -21v-9t1 -9q21 12 48 21zM212 83q-42 3 -79.5 22t-65.5 48v-25q0 -24 7.5 -43t19 -32t26.5 -20t30 -7q20 0 37.5 14t24.5 43z" />
    <glyph glyph-name="otilde" unicode="&#xf5;" 
d="M218 489q13 -11 18.5 -24.5t5.5 -27.5q0 -23 -13.5 -40t-39.5 -17q-9 0 -24.5 5t-33.5 11.5t-37 11.5t-35 5q-17 0 -29 -7t-17 -24q-14 32 -14 52q0 23 16 30t41 7q20 0 42.5 -2t44.5 -2q23 0 42.5 4t32.5 18zM-51 94q0 38 16 76.5t55 67.5q-1 6 -1.5 12.5t-0.5 12.5
q0 32 23 51t55 19q24 0 50.5 -12.5t49 -37t37 -61.5t14.5 -86q0 -17 -3 -32q40 4 77.5 28.5t66.5 77.5l19 -5q-33 -62 -77 -90t-90 -32q-8 -27 -24 -47.5t-37 -34t-45.5 -20t-48.5 -6.5q-26 0 -50.5 7.5t-43.5 22.5t-30.5 37.5t-11.5 51.5zM105 264q-16 -17 -23.5 -37
t-11.5 -40q24 -34 62.5 -57t82.5 -27v11q0 36 -17 68.5t-41 57t-50 38.5t-43 14q-22 0 -22 -21v-9t1 -9q21 12 48 21zM212 83q-42 3 -79.5 22t-65.5 48v-25q0 -24 7.5 -43t19 -32t26.5 -20t30 -7q20 0 37.5 14t24.5 43z" />
    <glyph glyph-name="odieresis" unicode="&#xf6;" 
d="M62 435q0 -26 -19.5 -40t-42.5 -14q-20 0 -35 10.5t-15 33.5q0 26 19.5 40t42.5 14q20 0 35 -10.5t15 -33.5zM274 435q0 -26 -19.5 -40t-42.5 -14q-20 0 -35 10.5t-15 33.5q0 26 19.5 40t42.5 14q20 0 35 -10.5t15 -33.5zM-51 94q0 38 16 76.5t55 67.5q-1 6 -1.5 12.5
t-0.5 12.5q0 32 23 51t55 19q24 0 50.5 -12.5t49 -37t37 -61.5t14.5 -86q0 -17 -3 -32q40 4 77.5 28.5t66.5 77.5l19 -5q-33 -62 -77 -90t-90 -32q-8 -27 -24 -47.5t-37 -34t-45.5 -20t-48.5 -6.5q-26 0 -50.5 7.5t-43.5 22.5t-30.5 37.5t-11.5 51.5zM105 264
q-16 -17 -23.5 -37t-11.5 -40q24 -34 62.5 -57t82.5 -27v11q0 36 -17 68.5t-41 57t-50 38.5t-43 14q-22 0 -22 -21v-9t1 -9q21 12 48 21zM212 83q-42 3 -79.5 22t-65.5 48v-25q0 -24 7.5 -43t19 -32t26.5 -20t30 -7q20 0 37.5 14t24.5 43z" />
    <glyph glyph-name="divide" unicode="&#xf7;" horiz-adv-x="440" 
d="M278 425q0 -26 -19.5 -40t-42.5 -14q-20 0 -35 10.5t-15 33.5q0 26 19.5 40t42.5 14q20 0 35 -10.5t15 -33.5zM278 195q0 -26 -19.5 -40t-42.5 -14q-20 0 -35 10.5t-15 33.5q0 26 19.5 40t42.5 14q20 0 35 -10.5t15 -33.5zM84 293q-13 0 -22.5 4.5t-9.5 12.5t9 14h298
q13 0 22.5 -4.5t9.5 -12.5t-9 -14h-298z" />
    <glyph glyph-name="oslash" unicode="&#xf8;" 
d="M-51 94q0 38 16 76.5t55 67.5q-1 6 -1.5 12.5t-0.5 12.5q0 32 23 51t55 19q29 0 62 -18.5t56 -54.5l55 69q2 -2 4 -6q2 -3 3 -7t1 -10q0 -10 -11 -24l-39 -49q9 -20 14.5 -44t5.5 -53q0 -17 -3 -32q40 4 77.5 28.5t66.5 77.5l19 -5q-33 -62 -77 -90t-90 -32
q-8 -27 -24 -47.5t-37 -34t-45.5 -20t-48.5 -6.5q-29 0 -56 9l-38 -49q-6 -8 -17 -8q-12 0 -17 11l46 59q-24 14 -39 38t-15 59zM105 264q-16 -17 -23.5 -37t-11.5 -40q9 -14 21 -25.5t26 -22.5l61 76q-26 35 -59.5 56t-54.5 21q-22 0 -22 -21v-9t1 -9q21 12 48 21zM212 83
q-23 2 -44 8t-41 16l-39 -49q12 -16 28.5 -24t33.5 -8q20 0 37.5 14t24.5 43zM215 114q0 20 -6 39.5t-16 36.5l-52 -65q37 -19 74 -22v11zM67 128q0 -12 2 -22.5t5 -20.5l29 37q-21 14 -36 31v-25z" />
    <glyph glyph-name="ugrave" unicode="&#xf9;" horiz-adv-x="533" 
d="M545 205q-7 -15 -15.5 -30t-17.5 -31q-41 -72 -94.5 -110.5t-103.5 -38.5q-42 0 -75 27.5t-48 85.5q-9 -36 -23.5 -61t-31.5 -40.5t-36 -22t-37 -6.5q-22 0 -42.5 17t-36 43.5t-25 58.5t-9.5 63q0 21 5 39.5t15.5 32.5t28 22t41.5 8q13 0 30 -3q-2 -18 -3.5 -35.5
t-1.5 -33.5q0 -31 3 -59.5t9.5 -50.5t17 -35.5t24.5 -13.5q19 0 37.5 42.5t23.5 114.5v14q0 17 8.5 30t22 21.5t29.5 13t31 4.5q22 0 34 -9q-2 -18 -3.5 -35.5t-1.5 -33.5q0 -31 5 -57.5t14 -46t22.5 -31t30.5 -11.5q23 0 53.5 23t66.5 77q10 15 18 31l16 32zM105 501
q5 -16 10.5 -31t17.5 -29t34 -27.5t59 -26.5q0 -3 -3.5 -9.5t-16.5 -6.5q-29 0 -58.5 6.5t-53 17t-38.5 24t-15 28.5q0 14 14.5 30t49.5 24z" />
    <glyph glyph-name="uacute" unicode="&#xfa;" horiz-adv-x="533" 
d="M545 205q-7 -15 -15.5 -30t-17.5 -31q-41 -72 -94.5 -110.5t-103.5 -38.5q-42 0 -75 27.5t-48 85.5q-9 -36 -23.5 -61t-31.5 -40.5t-36 -22t-37 -6.5q-22 0 -42.5 17t-36 43.5t-25 58.5t-9.5 63q0 21 5 39.5t15.5 32.5t28 22t41.5 8q13 0 30 -3q-2 -18 -3.5 -35.5
t-1.5 -33.5q0 -31 3 -59.5t9.5 -50.5t17 -35.5t24.5 -13.5q19 0 37.5 42.5t23.5 114.5v14q0 17 8.5 30t22 21.5t29.5 13t31 4.5q22 0 34 -9q-2 -18 -3.5 -35.5t-1.5 -33.5q0 -31 5 -57.5t14 -46t22.5 -31t30.5 -11.5q23 0 53.5 23t66.5 77q10 15 18 31l16 32zM189 501
q35 -8 49.5 -19.5t14.5 -25.5q0 -15 -15 -30t-38.5 -27t-53 -20t-58.5 -8q-13 0 -16.5 6.5t-3.5 9.5q37 13 59 26.5t34 27.5t17.5 29t10.5 31z" />
    <glyph glyph-name="ucircumflex" unicode="&#xfb;" horiz-adv-x="533" 
d="M545 205q-7 -15 -15.5 -30t-17.5 -31q-41 -72 -94.5 -110.5t-103.5 -38.5q-42 0 -75 27.5t-48 85.5q-9 -36 -23.5 -61t-31.5 -40.5t-36 -22t-37 -6.5q-22 0 -42.5 17t-36 43.5t-25 58.5t-9.5 63q0 21 5 39.5t15.5 32.5t28 22t41.5 8q13 0 30 -3q-2 -18 -3.5 -35.5
t-1.5 -33.5q0 -31 3 -59.5t9.5 -50.5t17 -35.5t24.5 -13.5q19 0 37.5 42.5t23.5 114.5v14q0 17 8.5 30t22 21.5t29.5 13t31 4.5q22 0 34 -9q-2 -18 -3.5 -35.5t-1.5 -33.5q0 -31 5 -57.5t14 -46t22.5 -31t30.5 -11.5q23 0 53.5 23t66.5 77q10 15 18 31l16 32zM95 494
q3 8 13.5 12t23.5 4q14 0 25.5 -4t14.5 -12q13 -33 32.5 -63.5t55.5 -52.5q0 -3 -3.5 -9.5t-16.5 -6.5q-38 0 -65 17t-42 40q-15 -23 -41.5 -40t-64.5 -17q-13 0 -16.5 6.5t-3.5 9.5q38 23 57.5 54t30.5 62z" />
    <glyph glyph-name="udieresis" unicode="&#xfc;" horiz-adv-x="533" 
d="M545 205q-7 -15 -15.5 -30t-17.5 -31q-41 -72 -94.5 -110.5t-103.5 -38.5q-42 0 -75 27.5t-48 85.5q-9 -36 -23.5 -61t-31.5 -40.5t-36 -22t-37 -6.5q-22 0 -42.5 17t-36 43.5t-25 58.5t-9.5 63q0 21 5 39.5t15.5 32.5t28 22t41.5 8q13 0 30 -3q-2 -18 -3.5 -35.5
t-1.5 -33.5q0 -31 3 -59.5t9.5 -50.5t17 -35.5t24.5 -13.5q19 0 37.5 42.5t23.5 114.5v14q0 17 8.5 30t22 21.5t29.5 13t31 4.5q22 0 34 -9q-2 -18 -3.5 -35.5t-1.5 -33.5q0 -31 5 -57.5t14 -46t22.5 -31t30.5 -11.5q23 0 53.5 23t66.5 77q10 15 18 31l16 32zM306 435
q0 -26 -19.5 -40t-42.5 -14q-20 0 -35 10.5t-15 33.5q0 26 19.5 40t42.5 14q20 0 35 -10.5t15 -33.5zM94 435q0 -26 -19.5 -40t-42.5 -14q-20 0 -35 10.5t-15 33.5q0 26 19.5 40t42.5 14q20 0 35 -10.5t15 -33.5z" />
    <glyph glyph-name="yacute" unicode="&#xfd;" horiz-adv-x="482" 
d="M181 483q35 -8 49.5 -19.5t14.5 -25.5q0 -15 -15 -30t-38.5 -27t-53 -20t-58.5 -8q-13 0 -16.5 6.5t-3.5 9.5q37 13 59 26.5t34 27.5t17.5 29t10.5 31zM303 263q-1 -16 -1.5 -32t-0.5 -33q0 -50 3.5 -101t9.5 -103q35 38 68 76t59 77q10 15 18 31l16 32l19 -5
q-7 -15 -15.5 -30.5t-17.5 -30.5q-27 -45 -65 -89.5t-79 -89.5q14 -114 29 -225t15 -210q0 -48 -16 -84.5t-41.5 -61t-58 -37t-65.5 -12.5q-31 0 -59.5 10.5t-51 31.5t-36 53t-13.5 74q0 58 18 112t48 104t69 97.5t81 92.5q-15 48 -27.5 95t-20.5 93q-9 -33 -23 -56
t-31 -37.5t-35.5 -20.5t-35.5 -6q-22 0 -42.5 17t-36 43.5t-25 58.5t-9.5 63q0 21 5 39.5t15.5 32.5t28 22t41.5 8q13 0 30 -3q-2 -18 -3.5 -35.5t-1.5 -33.5q0 -31 3 -59.5t9.5 -50.5t17 -35.5t24.5 -13.5q17 0 35 37.5t25 102.5q-1 8 -1 16v16q0 17 8.5 30t22 21.5
t29.5 13t31 4.5q22 0 34 -9zM323 -467q0 78 -24.5 166.5t-53.5 180.5q-42 -54 -69 -110t-27 -116q0 -44 12.5 -82.5t31 -67t40.5 -45t41 -16.5q21 0 35 21t14 69z" />
    <glyph glyph-name="thorn" unicode="&#xfe;" horiz-adv-x="498" 
d="M-190 -343q0 55 14 116t39 122t60 119t77 107q-25 127 -44.5 255t-19.5 248q0 42 21 66t52 24q19 0 35 -8q-9 -80 -9 -168t6.5 -178t16.5 -179q52 47 110 74.5t120 27.5q59 0 84.5 -22.5t25.5 -56.5q0 -32 -20 -69t-53.5 -68.5t-77 -52.5t-90.5 -21q-27 0 -47.5 6.5
t-20.5 18.5q0 11 24 27q13 -19 29.5 -27.5t34.5 -8.5q22 0 40 13t30.5 33t19 44.5t6.5 47.5q0 33 -14.5 57t-46.5 24q-44 0 -82 -18t-70 -49q8 -72 17 -141.5t16.5 -133t12 -120.5t4.5 -104q0 -59 -11.5 -101t-30.5 -69t-43.5 -39.5t-50.5 -12.5q-30 0 -59 15t-52.5 43.5
t-38 68.5t-14.5 90zM82 -398q0 48 -6.5 104.5t-17.5 118.5t-24.5 129.5l-27.5 137.5q-22 -35 -39 -74t-28.5 -80t-17.5 -81.5t-6 -77.5q0 -58 12.5 -104t31.5 -77.5t41 -48.5t40 -17t30 17t12 53z" />
    <glyph glyph-name="ydieresis" unicode="&#xff;" horiz-adv-x="482" 
d="M93 435q0 -26 -19.5 -40t-42.5 -14q-20 0 -35 10.5t-15 33.5q0 26 19.5 40t42.5 14q20 0 35 -10.5t15 -33.5zM305 435q0 -26 -19.5 -40t-42.5 -14q-20 0 -35 10.5t-15 33.5q0 26 19.5 40t42.5 14q20 0 35 -10.5t15 -33.5zM303 263q-1 -16 -1.5 -32t-0.5 -33
q0 -50 3.5 -101t9.5 -103q35 38 68 76t59 77q10 15 18 31l16 32l19 -5q-7 -15 -15.5 -30.5t-17.5 -30.5q-27 -45 -65 -89.5t-79 -89.5q14 -114 29 -225t15 -210q0 -48 -16 -84.5t-41.5 -61t-58 -37t-65.5 -12.5q-31 0 -59.5 10.5t-51 31.5t-36 53t-13.5 74q0 58 18 112
t48 104t69 97.5t81 92.5q-15 48 -27.5 95t-20.5 93q-9 -33 -23 -56t-31 -37.5t-35.5 -20.5t-35.5 -6q-22 0 -42.5 17t-36 43.5t-25 58.5t-9.5 63q0 21 5 39.5t15.5 32.5t28 22t41.5 8q13 0 30 -3q-2 -18 -3.5 -35.5t-1.5 -33.5q0 -31 3 -59.5t9.5 -50.5t17 -35.5t24.5 -13.5
q17 0 35 37.5t25 102.5q-1 8 -1 16v16q0 17 8.5 30t22 21.5t29.5 13t31 4.5q22 0 34 -9zM323 -467q0 78 -24.5 166.5t-53.5 180.5q-42 -54 -69 -110t-27 -116q0 -44 12.5 -82.5t31 -67t40.5 -45t41 -16.5q21 0 35 21t14 69z" />
    <glyph glyph-name="dotlessi" unicode="&#x131;" horiz-adv-x="301" 
d="M313 205q-7 -15 -15.5 -30t-17.5 -31q-42 -75 -98.5 -116.5t-107.5 -41.5q-26 0 -49 11.5t-40 35.5t-26.5 61.5t-9.5 88.5q0 17 8.5 30t22 21.5t29.5 13t31 4.5q22 0 34 -9q-2 -18 -3.5 -35.5t-1.5 -33.5q0 -60 16.5 -97t48.5 -37q24 0 55.5 25t70.5 82q10 15 18 31
l16 32z" />
    <glyph glyph-name="Lslash" unicode="&#x141;" horiz-adv-x="372" 
d="M664 -134q-4 -24 -9 -44.5t-16.5 -35.5t-32.5 -23t-57 -8q-35 0 -81 24t-98 57t-106.5 67t-104.5 53q-8 -18 -22 -31t-32 -21t-38.5 -12t-39.5 -4q-35 0 -60.5 11t-25.5 31q0 14 9 25t24 19t34.5 13.5t40.5 9.5q-2 27 -3 62.5t-1 77.5v29t1 30q-18 -10 -22 -27
q-13 32 -13 51t10 28t27 12q4 59 12 119.5t23 117t38 106t56 86.5t77 58t101 21q65 0 92.5 -29t27.5 -71q0 -37 -18.5 -78t-49.5 -75.5t-72 -57.5t-86 -23q-4 0 -7 1t-3 6t5 15q26 11 46.5 32.5t34.5 47.5t21.5 54t7.5 53q0 34 -14 57t-45 23q-47 0 -78 -28t-49 -74.5
t-25 -108.5t-7 -129q0 -31 1 -61.5t3 -61.5h31q23 0 42 3.5t33 13.5q20 -31 20 -53q0 -37 -50 -37q-11 0 -29.5 4t-41.5 9q5 -49 10.5 -97.5t10.5 -98.5q68 -2 129.5 -24t118 -48t110.5 -47.5t107 -21.5q16 0 33 3zM23 -70q7 0 14.5 10t10.5 30q-23 -4 -32.5 -11.5
t-9.5 -15.5q0 -13 17 -13z" />
    <glyph glyph-name="lslash" unicode="&#x142;" horiz-adv-x="308" 
d="M216 680q0 -68 -35.5 -173t-113.5 -245v-2q17 2 31.5 5.5t25.5 11.5q20 -31 20 -53q0 -37 -50 -37q-9 0 -22 3q7 -70 23.5 -113.5t47.5 -43.5q22 0 52 26.5t72 87.5q10 15 18 31l16 32l19 -5q-7 -15 -15 -30.5t-18 -30.5q-57 -84 -109 -124t-95 -40q-53 0 -87.5 57.5
t-43.5 167.5q-17 -2 -31 -10.5t-19 -25.5q-13 32 -13 51q0 24 17 32.5t43 10.5v16q0 57 8.5 117.5t23.5 118t35.5 108t43.5 88.5t48 60t49 22q26 0 42.5 -28.5t16.5 -84.5zM65 386v-46t1 -45q65 120 91 213t26 155q0 52 -8.5 71.5t-28.5 19.5q-18 0 -33 -32t-25.5 -84.5
t-16.5 -118.5t-6 -133z" />
    <glyph glyph-name="OE" unicode="&#x152;" horiz-adv-x="1176" 
d="M609 674q44 -26 75 -70q3 44 23 78.5t50 58t67 35.5t74 12q27 0 56 -8q15 11 32.5 18t37.5 7q35 0 57 -11.5t22 -22.5q0 -7 -12 -16t-31 -11q-13 43 -47 43q-11 0 -20.5 -4t-19.5 -10q35 -16 58 -47.5t23 -80.5q0 -26 -8 -51t-21.5 -44t-32 -30.5t-39.5 -11.5
q-41 0 -59.5 29t-18.5 71q0 33 11 69.5t32 65.5q-19 8 -38 8q-26 0 -53.5 -12.5t-49.5 -35.5t-36 -55t-14 -70q0 -15 1 -29t3 -27q30 6 66 6q48 0 73 -23t25 -48q0 -20 -16 -35t-49 -15q-42 0 -72.5 21.5t-48.5 55.5q-29 -22 -42.5 -59.5t-13.5 -82.5q0 -66 24 -125.5
t63 -104.5t89.5 -71.5t103.5 -26.5q54 0 106.5 31t95.5 102q19 32 34 63l19 -5q-7 -15 -15.5 -30t-17.5 -31q-28 -51 -69 -90t-89 -65.5t-100.5 -40.5t-103.5 -14q-63 0 -120 21.5t-98 66.5q-48 -33 -107.5 -53t-134.5 -20q-61 0 -117 19.5t-98.5 58.5t-68 99t-25.5 141
q0 86 22 157.5t58.5 129t84 100.5t98.5 71.5t102 43t94 14.5q34 0 58 -9t39 -24t22 -34.5t7 -40.5v-1zM484 707q11 0 22.5 -1t22.5 -3q-4 20 -18.5 33t-42.5 13q-30 0 -69.5 -20t-75.5 -64t-60.5 -115.5t-24.5 -174.5q0 -94 16.5 -160t43.5 -108t62.5 -61.5t74.5 -19.5
q64 0 114 29q-23 35 -35 80t-12 102q0 44 11.5 87.5t35 80.5t60 65.5t86.5 43.5q-13 41 -35.5 75.5t-54.5 57.5q-6 -23 -21 -41t-35 -30t-43 -18.5t-45 -6.5q-44 0 -63.5 20t-19.5 46q0 16 7 32t20.5 29t33.5 21t45 8zM978 618q0 43 -12 71t-31 43q-20 -29 -31 -66t-11 -69
q0 -30 12 -50.5t39 -20.5q14 0 24 27.5t10 64.5zM433 581q13 0 29 9t30 23.5t24.5 32t12.5 34.5q-24 6 -53 6q-18 0 -31.5 -6.5t-22.5 -17t-13.5 -22.5t-4.5 -24q0 -14 7.5 -24.5t21.5 -10.5zM789 509q-31 0 -53 -9q10 -32 32 -51t63 -19q18 0 27 9t9 21q0 17 -18.5 33
t-59.5 16z" />
    <glyph glyph-name="oe" unicode="&#x153;" horiz-adv-x="664" 
d="M447 24q27 0 53.5 10t51 27t45.5 39t37 47q10 15 18 31l16 32l19 -5q-7 -15 -15 -30.5t-18 -30.5q-24 -38 -55.5 -68.5t-67.5 -51.5t-75.5 -32.5t-78.5 -11.5q-69 0 -103.5 22t-43.5 57q-21 -43 -61.5 -63.5t-83.5 -20.5q-26 0 -50.5 7.5t-43.5 22.5t-30.5 37.5
t-11.5 51.5q0 38 16 76.5t55 67.5q-1 6 -1.5 12.5t-0.5 12.5q0 32 23 51t55 19q22 0 46.5 -10.5t46 -32t37 -53.5t19.5 -74q14 31 36 59.5t49 51t57 36t59 13.5q38 0 54.5 -17.5t16.5 -43.5q0 -25 -13 -53.5t-36 -52.5t-53.5 -40t-64.5 -16q9 -32 32 -54t65 -22zM105 264
q-16 -17 -23.5 -37t-11.5 -40q24 -34 62.5 -57t82.5 -27v11q0 36 -17 68.5t-41 57t-50 38.5t-43 14q-22 0 -22 -21v-9t1 -9q21 12 48 21zM446 262q0 13 -5 21t-16 8q-18 0 -32.5 -12.5t-25.5 -32.5t-17 -45.5t-6 -51.5q0 -19 3 -35q18 0 35.5 16t32 39t23 48.5t8.5 44.5z
M67 128q0 -24 7.5 -43t19 -32t26.5 -20t30 -7q20 0 37.5 14t24.5 43q-42 3 -79.5 22t-65.5 48v-25z" />
    <glyph glyph-name="Scaron" unicode="&#x160;" horiz-adv-x="716" 
d="M319 857q-11 31 -30.5 62t-57.5 54q0 3 3.5 9.5t16.5 6.5q38 0 64.5 -17t41.5 -40q15 23 42 40t65 17q13 0 16.5 -6.5t3.5 -9.5q-36 -22 -55.5 -52.5t-32.5 -63.5q-3 -8 -14.5 -12t-25.5 -4q-13 0 -23.5 4t-13.5 12zM620 189q0 -74 -33.5 -130t-87 -93.5t-119.5 -56
t-131 -18.5q-51 0 -97 11.5t-81.5 34.5t-56.5 57.5t-21 81.5q0 52 18 88t45.5 58.5t60.5 32.5t62 10q44 0 65.5 -16t21.5 -39q0 -17 -13 -34t-39 -31q-17 24 -36.5 34.5t-39.5 10.5q-24 0 -42 -9.5t-31 -25.5t-19.5 -37t-6.5 -44q0 -29 11 -57.5t33.5 -51.5t58 -37.5
t84.5 -14.5q45 0 89 13t79.5 40t57.5 67t22 94q0 35 -31.5 66.5t-79 62.5t-103 63t-103 67.5t-79 76.5t-31.5 90q0 60 33.5 107.5t86 80.5t117 51t126.5 18q76 0 132 -27q29 18 60 18q35 0 57 -11.5t22 -22.5q0 -15 -35 -18q-7 23 -22.5 28.5t-32.5 5.5q-8 0 -16 -2.5
t-16 -6.5q33 -21 53 -53.5t20 -79.5q0 -32 -10 -57t-26 -43t-36 -27.5t-39 -9.5q-28 0 -48.5 22.5t-20.5 72.5q0 34 12 71.5t34 68.5q-24 17 -55 25t-63 8q-39 0 -78 -10t-70 -28t-50.5 -42t-19.5 -51q0 -42 34 -76.5t85 -66.5t110 -64.5t110 -69t85 -79t34 -96.5zM556 614
q0 38 -12 65.5t-32 46.5q-19 -29 -30 -65t-11 -68q0 -30 12.5 -47t28.5 -17q17 0 30.5 20t13.5 65z" />
    <glyph glyph-name="scaron" unicode="&#x161;" horiz-adv-x="403" 
d="M16 -34q-22 0 -40 5t-31 13.5t-20.5 18.5t-7.5 20q0 14 13.5 25t43.5 17q8 -23 24.5 -34.5t34.5 -11.5q23 0 40.5 16t17.5 46q0 19 -9.5 32.5t-24 23.5t-31.5 18t-31.5 17.5t-24 21.5t-9.5 29q0 23 17.5 42.5t44 33t58.5 21t61 7.5q34 0 57 -11t23 -36q0 -11 -12.5 -20
t-41.5 -13q-8 22 -31 33t-47 11q-23 0 -41 -10.5t-18 -33.5q0 -11 11.5 -19.5t30 -17t41 -17t44.5 -17.5q73 -32 73 -76q0 -46 -71 -88q42 12 81 31q33 17 67.5 42.5t54.5 63.5l33 61l19 -5l-32 -60q-23 -43 -64 -76t-91.5 -56t-105.5 -35t-106 -12zM67 370q-11 31 -30.5 62
t-57.5 54q0 3 3.5 9.5t16.5 6.5q38 0 64.5 -17t41.5 -40q15 23 42 40t65 17q13 0 16.5 -6.5t3.5 -9.5q-36 -22 -55.5 -52.5t-32.5 -63.5q-3 -8 -14.5 -12t-25.5 -4q-13 0 -23.5 4t-13.5 12z" />
    <glyph glyph-name="Ydieresis" unicode="&#x178;" horiz-adv-x="611" 
d="M295 706q0 -26 -19.5 -40t-42.5 -14q-20 0 -35 10.5t-15 33.5q0 26 19.5 40t42.5 14q20 0 35 -10.5t15 -33.5zM507 706q0 -26 -19.5 -40t-42.5 -14q-20 0 -35 10.5t-15 33.5q0 26 19.5 40t42.5 14q20 0 35 -10.5t15 -33.5zM93 -436q0 70 30 140.5t76.5 135.5t103 124
t110.5 107l-16 51q-43 -67 -97 -103.5t-108 -36.5q-48 0 -92.5 31t-79 97.5t-55 171.5t-20.5 253q0 67 5.5 114.5t19 76.5t36.5 42.5t58 13.5t91 -14q-10 -9 -17.5 -38t-12.5 -70.5t-7.5 -92.5t-2.5 -106q0 -116 10.5 -196.5t29 -131t42.5 -73t51 -22.5q35 0 70.5 32.5
t66.5 86.5q-23 72 -38.5 133t-15.5 103q0 48 10 87.5t25.5 67.5t34 43.5t35.5 15.5q23 0 39.5 -30t16.5 -96q0 -84 -15.5 -156t-41.5 -132q13 -60 29 -123t30.5 -122.5t24.5 -113.5t10 -97q0 -96 -26.5 -175.5t-67.5 -135.5t-91 -87t-97 -31q-32 0 -60 15t-49 46t-33 79.5
t-12 115.5zM498 -287q0 33 -6.5 73t-18 84t-25.5 90.5t-29 93.5q-57 -54 -90.5 -105t-51.5 -102t-23.5 -102.5t-5.5 -106.5q0 -46 8.5 -79.5t23 -56t33 -33.5t39.5 -11q26 0 52 16.5t47 49t34 80t13 109.5zM413 368q0 -58 12 -124q22 57 35 122t13 132q0 40 -4 57.5
t-10 17.5q-7 0 -15 -18t-15 -47t-11.5 -66t-4.5 -74z" />
    <glyph glyph-name="Zcaron" unicode="&#x17d;" horiz-adv-x="551" 
d="M272 845q-11 31 -30.5 62t-57.5 54q0 3 3.5 9.5t16.5 6.5q38 0 64.5 -17t41.5 -40q15 23 42 40t65 17q13 0 16.5 -6.5t3.5 -9.5q-36 -22 -55.5 -52.5t-32.5 -63.5q-3 -8 -14.5 -12t-25.5 -4q-13 0 -23.5 4t-13.5 12zM13 -436q0 72 30 146t77 144.5t104 133.5t111 112
q-20 32 -45.5 57.5t-57.5 41.5q-38 -25 -74 -39.5t-65 -14.5q-38 0 -55.5 11t-17.5 25q0 20 31.5 39.5t89.5 19.5q32 0 62 -6q36 33 69.5 78.5t59 95t41 100t15.5 93.5q0 28 -7.5 51.5t-23 40.5t-40.5 26.5t-61 9.5q-27 0 -54 -10t-48 -31.5t-34 -55t-13 -79.5q0 -17 6 -30
q-19 -25 -40 -36.5t-39 -11.5q-22 0 -36 14.5t-14 40.5q0 64 38 114t96.5 85t128.5 53.5t135 18.5q51 0 87 -10t58.5 -27.5t33 -41.5t10.5 -53q0 -51 -27.5 -113t-72 -123.5t-100 -118t-112.5 -97.5q57 -25 96 -73t63 -107t34 -124.5t10 -126.5q0 -109 -28 -197t-71 -149.5
t-95 -95t-101 -33.5q-32 0 -60 15t-49 45.5t-33 78.5t-12 114zM421 -240q0 35 -4 76t-13 84t-24 85.5t-36 79.5q-59 -56 -94 -111.5t-53 -111.5t-23.5 -112t-5.5 -112q0 -45 8.5 -79.5t22.5 -57t33 -34t39 -11.5q26 0 53 19t48.5 57t35 95t13.5 133zM78 170q24 0 51 12
t54 34q-24 6 -52 6q-14 0 -29.5 -4t-28 -10t-20.5 -13t-8 -13q0 -5 7.5 -8.5t25.5 -3.5z" />
    <glyph glyph-name="zcaron" unicode="&#x17e;" horiz-adv-x="403" 
d="M98 384q-11 31 -30.5 62t-57.5 54q0 3 3.5 9.5t16.5 6.5q38 0 64.5 -17t41.5 -40q15 23 42 40t65 17q13 0 16.5 -6.5t3.5 -9.5q-36 -22 -55.5 -52.5t-32.5 -63.5q-3 -8 -14.5 -12t-25.5 -4q-13 0 -23.5 4t-13.5 12zM146 96q29 30 53.5 68.5t39.5 78.5q-19 -12 -51 -24
t-65.5 -21t-63.5 -15t-45 -6q-23 0 -39 10.5t-16 34.5q0 17 6.5 41t20.5 58q5 -11 22 -18t41 -11t52.5 -5.5t56.5 -1.5q32 0 59.5 1t43.5 3q2 0 4.5 -5t2.5 -10q-17 -61 -45 -108t-61 -80q42 -30 68 -85q39 36 73 72.5t59 73.5q10 15 18 31l16 32l19 -5q-7 -15 -15.5 -30.5
t-17.5 -30.5q-24 -39 -62 -79t-83 -82q17 -42 24.5 -90.5t7.5 -102.5q0 -80 -17 -161.5t-49 -146.5t-78 -106t-104 -41q-31 0 -59.5 10.5t-51 31.5t-36 53t-13.5 74q0 69 32 132t81.5 121.5t110.5 113t120 108.5q-11 28 -27 50.5t-38 37.5q-31 -27 -60.5 -40.5t-52.5 -13.5
q-27 0 -39 9t-12 23q0 11 7.5 23.5t20.5 22.5t30.5 16.5t37.5 6.5q21 0 39 -5t35 -13zM236 -210q0 46 -6 89t-18 81q-41 -38 -80.5 -76.5t-71 -76.5t-51 -76.5t-19.5 -76.5q0 -44 12.5 -82.5t31 -67t40.5 -45t41 -16.5q24 0 46 30.5t38.5 79.5t26.5 111.5t10 125.5zM32 29
q21 0 45 12.5t48 34.5q-28 14 -62 14q-24 0 -37.5 -14.5t-13.5 -28.5q0 -8 5 -13t15 -5z" />
    <glyph glyph-name="florin" unicode="&#x192;" horiz-adv-x="396" 
d="M33 423h106l25 173q8 58 37 89q27 29 70.5 38t103.5 1v-76q-61 5 -87.5 -8t-32.5 -56l-23 -161h118v-70h-128l-54 -385q-9 -63 -40 -94q-23 -23 -58.5 -29t-84.5 0v74q37 -3 60 6.5t29 49.5l55 378h-96v70z" />
    <glyph glyph-name="circumflex" unicode="&#x2c6;" horiz-adv-x="506" 
d="M134 494q3 8 13.5 12t23.5 4q14 0 25.5 -4t14.5 -12q13 -33 32.5 -63.5t55.5 -52.5q0 -3 -3.5 -9.5t-16.5 -6.5q-38 0 -65 17t-42 40q-15 -23 -41.5 -40t-64.5 -17q-13 0 -16.5 6.5t-3.5 9.5q38 23 57.5 54t30.5 62z" />
    <glyph glyph-name="caron" unicode="&#x2c7;" horiz-adv-x="506" 
d="M134 384q-11 31 -30.5 62t-57.5 54q0 3 3.5 9.5t16.5 6.5q38 0 64.5 -17t41.5 -40q15 23 42 40t65 17q13 0 16.5 -6.5t3.5 -9.5q-36 -22 -55.5 -52.5t-32.5 -63.5q-3 -8 -14.5 -12t-25.5 -4q-13 0 -23.5 4t-13.5 12z" />
    <glyph glyph-name="breve" unicode="&#x2d8;" horiz-adv-x="506" 
d="M81 509q0 2 6.5 4.5t14.5 2.5q12 0 15 -8q9 -30 31.5 -53.5t50.5 -23.5q20 0 40 16.5t37 55.5q4 9 12 9q5 0 9 -2.5t4 -4.5q-6 -29 -18.5 -52t-29 -38.5t-36 -24t-38.5 -8.5q-35 0 -63.5 30t-34.5 97z" />
    <glyph glyph-name="dotaccent" unicode="&#x2d9;" horiz-adv-x="301" 
d="M73 435q0 -26 -19.5 -40t-42.5 -14q-20 0 -35 10.5t-15 33.5q0 26 19.5 40t42.5 14q20 0 35 -10.5t15 -33.5z" />
    <glyph glyph-name="ring" unicode="&#x2da;" horiz-adv-x="506" 
d="M158 486q34 0 50.5 -17.5t16.5 -39.5t-17.5 -40.5t-52.5 -18.5q-33 0 -50.5 18.5t-17.5 40.5t17.5 39.5t53.5 17.5zM159 404q13 0 19 7.5t6 16.5q0 10 -7 18.5t-23 8.5q-13 0 -19.5 -8t-6.5 -17q0 -10 7.5 -18t23.5 -8z" />
    <glyph glyph-name="ogonek" unicode="&#x2db;" 
d="M98 -96q0 17 8 36t23 36t36.5 31t49.5 22q2 0 4.5 -4t2.5 -9q0 -7 -8 -11q-38 -20 -54 -41t-16 -39q0 -28 16 -40t36 -12q15 0 30 6q0 -21 -13.5 -30t-30.5 -9q-14 0 -29 4.5t-27 13t-20 20t-8 26.5z" />
    <glyph glyph-name="tilde" unicode="&#x2dc;" horiz-adv-x="563" 
d="M266 489q13 -11 18.5 -24.5t5.5 -27.5q0 -23 -13.5 -40t-39.5 -17q-9 0 -24.5 5t-33.5 11.5t-37 11.5t-35 5q-17 0 -29 -7t-17 -24q-14 32 -14 52q0 23 16 30t41 7q20 0 42.5 -2t44.5 -2q23 0 42.5 4t32.5 18z" />
    <glyph glyph-name="hungarumlaut" unicode="&#x2dd;" horiz-adv-x="506" 
d="M282 501q35 -8 49.5 -19.5t14.5 -25.5q0 -15 -15 -30t-38.5 -27t-53 -20t-58.5 -8q-13 0 -16.5 6.5t-3.5 9.5q37 13 59 26.5t34 27.5t17.5 29t10.5 31zM131 501q35 -8 49.5 -19.5t14.5 -25.5q0 -15 -15 -30t-38.5 -27t-53 -20t-58.5 -8q-13 0 -16.5 6.5t-3.5 9.5
q37 13 59 26.5t34 27.5t17.5 29t10.5 31z" />
    <glyph glyph-name="endash" unicode="&#x2013;" horiz-adv-x="575" 
d="M453 177q8 0 13 -3.5t5 -8.5q0 -7 -9.5 -13t-31.5 -6h-342q-14 0 -14 10q0 7 7.5 14t18.5 7h353z" />
    <glyph glyph-name="emdash" unicode="&#x2014;" horiz-adv-x="755" 
d="M633 177q8 0 13 -3.5t5 -8.5q0 -7 -9.5 -13t-31.5 -6h-522q-14 0 -14 10q0 7 7.5 14t18.5 7h533z" />
    <glyph glyph-name="quoteleft" unicode="&#x2018;" horiz-adv-x="192" 
d="M86 642q18 5 30 5q14 0 24 -4.5t16 -11t9 -13.5t3 -12q0 -26 -20 -40t-43 -14q-29 0 -41.5 18t-12.5 44q0 21 8 45t21.5 43.5t32.5 32.5t41 13q10 0 15 -6.5t5 -11.5q-15 -3 -30 -10t-28 -18.5t-21 -26.5t-9 -33z" />
    <glyph glyph-name="quoteright" unicode="&#x2019;" horiz-adv-x="180" 
d="M119 658q-18 -5 -30 -5q-14 0 -24 4.5t-16 11t-9 13.5t-3 12q0 26 20 40t43 14q29 0 41.5 -18t12.5 -44q0 -21 -8 -45t-21.5 -43.5t-32.5 -32.5t-41 -13q-10 0 -15 6.5t-5 11.5q15 3 30 10t28 18.5t21 26.5t9 33z" />
    <glyph glyph-name="quotesinglbase" unicode="&#x201a;" horiz-adv-x="260" 
d="M94 -12q-18 -5 -30 -5q-14 0 -24 4.5t-16 11t-9 13.5t-3 12q0 26 20 40t43 14q29 0 41.5 -18t12.5 -44q0 -21 -8 -45t-21.5 -43.5t-32.5 -32.5t-41 -13q-10 0 -15 6.5t-5 11.5q15 3 30 10t28 18.5t21 26.5t9 33z" />
    <glyph glyph-name="quotedblleft" unicode="&#x201c;" horiz-adv-x="328" 
d="M222 642q18 5 30 5q14 0 24 -4.5t16 -11t9 -13.5t3 -12q0 -26 -20 -40t-43 -14q-29 0 -41.5 18t-12.5 44q0 21 8 45t21.5 43.5t32.5 32.5t41 13q10 0 15 -6.5t5 -11.5q-15 -3 -30 -10t-28 -18.5t-21 -26.5t-9 -33zM86 642q18 5 30 5q14 0 24 -4.5t16 -11t9 -13.5t3 -12
q0 -26 -20 -40t-43 -14q-29 0 -41.5 18t-12.5 44q0 21 8 45t21.5 43.5t32.5 32.5t41 13q10 0 15 -6.5t5 -11.5q-15 -3 -30 -10t-28 -18.5t-21 -26.5t-9 -33z" />
    <glyph glyph-name="quotedblright" unicode="&#x201d;" horiz-adv-x="317" 
d="M120 658q-18 -5 -30 -5q-14 0 -24 4.5t-16 11t-9 13.5t-3 12q0 26 20 40t43 14q29 0 41.5 -18t12.5 -44q0 -21 -8 -45t-21.5 -43.5t-32.5 -32.5t-41 -13q-10 0 -15 6.5t-5 11.5q15 3 30 10t28 18.5t21 26.5t9 33zM256 658q-18 -5 -30 -5q-14 0 -24 4.5t-16 11t-9 13.5
t-3 12q0 26 20 40t43 14q29 0 41.5 -18t12.5 -44q0 -21 -8 -45t-21.5 -43.5t-32.5 -32.5t-41 -13q-10 0 -15 6.5t-5 11.5q15 3 30 10t28 18.5t21 26.5t9 33z" />
    <glyph glyph-name="quotedblbase" unicode="&#x201e;" horiz-adv-x="400" 
d="M234 -12q-18 -5 -30 -5q-14 0 -24 4.5t-16 11t-9 13.5t-3 12q0 26 20 40t43 14q29 0 41.5 -18t12.5 -44q0 -21 -8 -45t-21.5 -43.5t-32.5 -32.5t-41 -13q-10 0 -15 6.5t-5 11.5q15 3 30 10t28 18.5t21 26.5t9 33zM94 -12q-18 -5 -30 -5q-14 0 -24 4.5t-16 11t-9 13.5
t-3 12q0 26 20 40t43 14q29 0 41.5 -18t12.5 -44q0 -21 -8 -45t-21.5 -43.5t-32.5 -32.5t-41 -13q-10 0 -15 6.5t-5 11.5q15 3 30 10t28 18.5t21 26.5t9 33z" />
    <glyph glyph-name="dagger" unicode="&#x2020;" horiz-adv-x="322" 
d="M116 382l8 20h-4q-14 0 -29 -4t-28.5 -8.5t-24 -8.5t-14.5 -4q-11 0 -16.5 11.5t-5.5 25.5t5.5 25t16.5 11q7 0 18.5 -5.5t26 -12t29.5 -13t28 -8.5q0 12 -6 26.5t-12.5 27.5t-12.5 24t-6 16q0 11 13 16.5t28 5.5q14 0 26 -5t12 -16q0 -6 -5.5 -17.5t-11.5 -24.5
t-11.5 -27t-5.5 -26q13 2 28 8.5t29.5 13t26 12t18.5 5.5q11 0 16.5 -11t5.5 -25t-5.5 -25.5t-16.5 -11.5q-4 0 -14.5 4t-24.5 8.5t-29.5 8.5t-28.5 4h-5l8 -20v-457q0 -13 -6 -19t-12 -6q-8 0 -8 8v474z" />
    <glyph glyph-name="daggerdbl" unicode="&#x2021;" horiz-adv-x="322" 
d="M116 382l8 20h-4q-14 0 -29 -4t-28.5 -8.5t-24 -8.5t-14.5 -4q-11 0 -16.5 11.5t-5.5 25.5t5.5 25t16.5 11q7 0 18.5 -5.5t26 -12t29.5 -13t28 -8.5q0 12 -6 26.5t-12.5 27.5t-12.5 24t-6 16q0 11 13 16.5t28 5.5q14 0 26 -5t12 -16q0 -6 -5.5 -17.5t-11.5 -24.5
t-11.5 -27t-5.5 -26q13 2 28 8.5t29.5 13t26 12t18.5 5.5q11 0 16.5 -11t5.5 -25t-5.5 -25.5t-16.5 -11.5q-4 0 -14.5 4t-24.5 8.5t-29.5 8.5t-28.5 4h-5l8 -20v-336l-8 -20h5q13 0 28.5 4t29.5 8.5t24.5 8.5t14.5 4q11 0 16.5 -11.5t5.5 -25.5t-5.5 -25t-16.5 -11
q-7 0 -18.5 5.5t-26 12t-29.5 13t-28 8.5q0 -12 5.5 -26t11.5 -27t11.5 -24.5t5.5 -17.5q0 -11 -12 -16t-26 -5q-15 0 -28 5.5t-13 16.5q0 5 6 16t12.5 24t12.5 27.5t6 26.5q-13 -2 -28 -8.5t-29.5 -13t-26 -12t-18.5 -5.5q-11 0 -16.5 11t-5.5 25t5.5 25.5t16.5 11.5
q4 0 14.5 -4t24 -8.5t28.5 -8.5t29 -4h4l-8 20v336z" />
    <glyph glyph-name="bullet" unicode="&#x2022;" horiz-adv-x="314" 
d="M184 136q0 -32 -24 -48.5t-51 -16.5q-23 0 -41 13t-18 40q0 32 24 48.5t51 16.5q23 0 41 -13t18 -40z" />
    <glyph glyph-name="ellipsis" unicode="&#x2026;" horiz-adv-x="813" 
d="M683 31q0 -26 -19.5 -40t-42.5 -14q-20 0 -35 10.5t-15 33.5q0 26 19.5 40t42.5 14q20 0 35 -10.5t15 -33.5zM422 31q0 -26 -19.5 -40t-42.5 -14q-20 0 -35 10.5t-15 33.5q0 26 19.5 40t42.5 14q20 0 35 -10.5t15 -33.5zM161 31q0 -26 -19.5 -40t-42.5 -14
q-20 0 -35 10.5t-15 33.5q0 26 19.5 40t42.5 14q20 0 35 -10.5t15 -33.5z" />
    <glyph glyph-name="perthousand" unicode="&#x2030;" horiz-adv-x="1490" 
d="M869 828q4 -2 8 -6q3 -3 6 -7t3 -10q0 -10 -11 -24l-718 -905q-6 -8 -21 -8q-7 0 -13 2.5t-9 8.5zM315 712q18 0 38 -5q-8 19 -26.5 30.5t-44.5 11.5q-37 0 -64.5 -17t-45.5 -45t-27 -64t-9 -73q0 -39 9.5 -76t28.5 -66t47 -47t66 -18q36 0 64 17t47 44t29 61t10 69
q0 38 -12 72t-38 56q-11 -21 -39 -31q11 22 11 46v3q-25 10 -51 10q-19 0 -36 -3.5t-30.5 -8t-23 -9t-12.5 -6.5l-1 -1q-5 0 -5 6q0 5 3 11t6 8q29 15 56 20t50 5zM1275 396q18 0 38 -5q-8 19 -26.5 30.5t-44.5 11.5q-37 0 -64.5 -17t-45.5 -45t-27 -64t-9 -73
q0 -39 9.5 -76t28.5 -66t47 -47t66 -18q36 0 64 17t47 44t29 61t10 69q0 38 -12 72t-38 56q-11 -21 -39 -31q11 22 11 46v3q-25 10 -51 10q-19 0 -36 -3.5t-30.5 -8t-23 -9t-12.5 -6.5l-1 -1q-5 0 -5 6q0 5 3 11t6 8q29 15 56 20t50 5zM810 394q18 0 38 -5q-8 19 -26.5 30.5
t-44.5 11.5q-37 0 -64.5 -17t-45.5 -45t-27 -64t-9 -73q0 -39 9.5 -76t28.5 -66t47 -47t66 -18q36 0 64 17t47 44t29 61t10 69q0 38 -12 72t-38 56q-11 -21 -39 -31q11 22 11 46v3q-25 10 -51 10q-19 0 -36 -3.5t-30.5 -8t-23 -9t-12.5 -6.5l-1 -1q-5 0 -5 6q0 5 3 11t6 8
q29 15 56 20t50 5zM891 371q38 -25 56.5 -70.5t18.5 -97.5q0 -47 -14.5 -93.5t-43 -84t-71 -61t-97.5 -23.5q-52 0 -89 17t-61 46.5t-35 67.5t-11 80q0 54 17 108.5t48.5 98.5t75.5 71.5t98 27.5q25 0 45 -7.5t34 -19.5t21.5 -27.5t7.5 -30.5v-2zM1356 373
q38 -25 56.5 -70.5t18.5 -97.5q0 -47 -14.5 -93.5t-43 -84t-71 -61t-97.5 -23.5q-52 0 -89 17t-61 46.5t-35 67.5t-11 80q0 54 17 108.5t48.5 98.5t75.5 71.5t98 27.5q25 0 45 -7.5t34 -19.5t21.5 -27.5t7.5 -30.5v-2zM396 689q38 -25 56.5 -70.5t18.5 -97.5
q0 -47 -14.5 -93.5t-43 -84t-71 -61t-97.5 -23.5q-52 0 -89 17t-61 46.5t-35 67.5t-11 80q0 54 17 108.5t48.5 98.5t75.5 71.5t98 27.5q25 0 45 -7.5t34 -19.5t21.5 -27.5t7.5 -30.5v-2z" />
    <glyph glyph-name="guilsinglleft" unicode="&#x2039;" horiz-adv-x="401" 
d="M108 115q12 0 39.5 -3.5t56 -11.5t50 -21t21.5 -31q0 -13 -10 -25.5t-20 -21.5q-49 44 -106 67t-100 23q-5 0 -7 5t-2 12q0 8 2.5 16t6.5 10q20 0 45 8t51.5 24t52.5 39t48 53q11 0 25 -13.5t14 -31.5q0 -27 -21.5 -43.5t-51.5 -27t-60.5 -17t-48.5 -11.5q4 0 7.5 0.5
t7.5 0.5z" />
    <glyph glyph-name="guilsinglright" unicode="&#x203a;" horiz-adv-x="401" 
d="M210 144q-12 0 -39.5 3.5t-56 11.5t-50 21t-21.5 31q0 13 10 25.5t20 21.5q49 -44 106 -67t100 -23q5 0 7 -5t2 -12q0 -8 -2.5 -16t-6.5 -10q-20 0 -45 -8t-51.5 -24t-52.5 -39t-48 -53q-11 0 -25 13.5t-14 31.5q0 27 21.5 43.5t51.5 27t60.5 17t48.5 11.5
q-4 0 -7.5 -0.5t-7.5 -0.5z" />
    <glyph glyph-name="fraction" unicode="&#x2044;" horiz-adv-x="411" 
d="M445 885q8 0 14.5 -8.5t6.5 -16.5q0 -6 -7 -20l-550 -1016q-7 -12 -26 -12q-11 0 -17 7z" />
    <glyph glyph-name="Euro" unicode="&#x20ac;" horiz-adv-x="704" 
d="M30 390q16 73 51.5 142t89.5 122t125.5 85t159.5 32q23 0 43 -3.5t37 -8.5q15 11 32 17t37 6q35 0 57 -11.5t22 -22.5q0 -15 -35 -18q-7 23 -22.5 28.5t-32.5 5.5q-20 0 -39 -14q43 -20 61.5 -55t18.5 -73q0 -26 -8 -51t-21.5 -44t-32 -30.5t-39.5 -11.5q-42 0 -61 28.5
t-19 70.5q0 35 12.5 73t35.5 68q-14 9 -31.5 14.5t-39.5 5.5q-54 0 -98.5 -30.5t-77 -80t-52.5 -113.5t-26 -131h110q13 0 22.5 -4.5t9.5 -12.5t-9 -14h-135v-18q0 -12 0.5 -23.5t1.5 -22.5h110q13 0 22.5 -4.5t9.5 -12.5t-9 -14h-130q9 -65 31.5 -115.5t54 -85.5t69.5 -53
t78 -18q60 0 116 43t93 135q21 -11 30 -23t9 -26q0 -41 -24 -74t-64 -56t-92 -36t-107 -13q-63 0 -125.5 18t-113 56.5t-82.5 99.5t-35 148h-30q-21 0 -29.5 3.5t-8.5 8.5q0 7 15 19h53q1 31 6 64h-36q-21 0 -29.5 3.5t-8.5 8.5q0 7 15 19h65zM559 595q0 30 -9 61.5
t-31 54.5q-20 -29 -31.5 -67t-11.5 -70t11.5 -49t26.5 -17q17 0 31 21t14 66z" />
    <glyph glyph-name="trademark" unicode="&#x2122;" horiz-adv-x="899" 
d="M183 162q0 -5 -10 -7.5t-17 -2.5t-14 17t-12 44t-8.5 60.5t-3.5 66.5q0 52 7 85t30 48q-42 -6 -80 -6q-46 0 -75 10.5t-29 38.5q0 19 9 33t24 14q18 -14 52 -20t79 -6q38 0 79 4t77.5 9.5t65 11.5t42.5 10q9 -5 13.5 -9t4.5 -10t-18.5 -15.5t-49 -19.5t-69.5 -20.5
t-80 -17.5q-9 -73 -13 -150t-4 -168zM532 136q-17 1 -30 11t-22 32.5t-13.5 61t-4.5 98.5q0 50 2.5 91.5t2.5 58.5q0 20 -1 31.5t-6 11.5q-10 0 -22 -26.5t-24 -67t-23.5 -89t-20 -93t-14 -77.5t-5.5 -44q0 -2 -3.5 -5t-8.5 -6q-2 0 -16.5 24t-30.5 60.5t-29 79.5t-13 82
q0 43 22 73t79 33q-12 -86 -12 -168q0 -28 1.5 -56.5t3.5 -58.5q10 66 22 135.5t28 127t38.5 94t53.5 36.5q15 0 24.5 -14.5t15.5 -37.5q3 -28 7 -66q2 -32 4.5 -79.5t2.5 -108.5q10 53 20.5 101.5t24.5 85t32.5 58.5t42.5 22q20 0 31.5 -16t18 -42t8.5 -59t3 -68t3 -68.5
t8 -59.5q5 -26 13 -36t17 -10q1 -2 1 -7q0 -15 -13.5 -33.5t-38.5 -18.5q-24 0 -38.5 20t-22.5 51t-10.5 68.5t-2.5 73.5t1.5 65t1.5 43q0 20 -1 31t-6 11q-11 0 -24 -30.5t-26 -75t-23.5 -95t-17.5 -89.5q1 -20 2 -36.5t4 -28.5q-5 -1 -16 -1z" />
    <glyph glyph-name="minus" unicode="&#x2212;" horiz-adv-x="440" 
d="M84 293q-13 0 -22.5 4.5t-9.5 12.5t9 14h298q13 0 22.5 -4.5t9.5 -12.5t-9 -14h-298z" />
    <glyph glyph-name="notequal" unicode="&#x2260;" horiz-adv-x="440" 
d="M265 341l-52 -65h146q13 0 22.5 -4.5t9.5 -12.5t-9 -14h-193l-57 -72q-6 -8 -17 -8q-12 0 -17 11l55 69h-69q-13 0 -22.5 4.5t-9.5 12.5t9 14h117l52 65h-146q-13 0 -22.5 4.5t-9.5 12.5t9 14h194l76 95q2 -2 4 -6q2 -3 3 -7t1 -10q0 -10 -11 -24l-38 -48h69
q13 0 22.5 -4.5t9.5 -12.5t-9 -14h-117z" />
    <glyph glyph-name="uniFB01" unicode="&#xfb01;" horiz-adv-x="553" 
d="M-23 325q-1 45 -2.5 88t-1.5 84q0 90 19.5 157t49.5 112t65.5 67t67.5 22q38 0 63.5 -29.5t25.5 -89.5q0 -22 -6 -44.5t-16.5 -41t-25 -30.5t-32.5 -12q-13 0 -26.5 6.5t-28.5 22.5q8 4 15 15t12 25.5t8 31.5t3 33q0 26 -8 44.5t-26 18.5t-39 -16.5t-39 -46t-30.5 -70.5
t-12.5 -89q0 -63 14 -127.5t31 -130.5h139q13 0 22.5 -4.5t9.5 -12.5t-9 -14h-154q15 -59 26.5 -117.5t11.5 -117.5q0 -42 -11.5 -74t-30.5 -53.5t-43 -33t-48 -11.5q-14 0 -31 5q24 70 32 152t8 168v41t-1 41h-91q-21 0 -29.5 3.5t-8.5 8.5q0 7 15 19h113zM565 205
q-7 -15 -15.5 -30t-17.5 -31q-42 -75 -98.5 -116.5t-107.5 -41.5q-26 0 -49 11.5t-40 35.5t-26.5 61.5t-9.5 88.5q0 17 8.5 30t22 21.5t29.5 13t31 4.5q22 0 34 -9q-2 -18 -3.5 -35.5t-1.5 -33.5q0 -60 16.5 -97t48.5 -37q24 0 55.5 25t70.5 82q10 15 18 31l16 32zM325 435
q0 -26 -19.5 -40t-42.5 -14q-20 0 -35 10.5t-15 33.5q0 26 19.5 40t42.5 14q20 0 35 -10.5t15 -33.5z" />
    <glyph glyph-name="uniFB02" unicode="&#xfb02;" horiz-adv-x="560" 
d="M133 805q-18 0 -39 -16.5t-39 -46t-30.5 -70.5t-12.5 -89q0 -60 12.5 -121t29.5 -124q91 15 153 41q9 76 30 150.5t49 133t59.5 94.5t63.5 36q26 0 42.5 -28.5t16.5 -84.5q0 -25 -5 -58.5t-21 -70t-46 -73.5t-79 -70v-22q0 -70 3 -134t11.5 -112.5t23.5 -77.5t40 -29
q22 0 52 26.5t72 87.5q10 15 18 31l16 32l19 -5q-7 -15 -15 -30.5t-18 -30.5q-57 -84 -109 -124t-95 -40q-61 0 -97.5 76.5t-36.5 222.5q0 36 3 72q-32 -11 -67 -20.5t-77 -17.5q17 -63 30 -126.5t13 -127.5q0 -42 -11.5 -74t-30.5 -53.5t-43 -33t-48 -11.5q-14 0 -31 5
q24 70 32 152t8 168v44.5t-1 44.5q-21 -2 -44 -4t-47 -3q-21 0 -29.5 3.5t-8.5 8.5q0 7 15 19q35 0 62 1t51 3q-1 44 -2.5 86t-1.5 82q0 90 19.5 157t49.5 112t65.5 67t67.5 22q38 0 63.5 -29.5t25.5 -89.5q0 -22 -6 -44.5t-16.5 -41t-25 -30.5t-32.5 -12q-13 0 -26.5 6.5
t-28.5 22.5q8 4 15 15t12 25.5t8 31.5t3 33q0 26 -8 44.5t-26 18.5zM398 754q-16 0 -29.5 -26t-24 -69.5t-17.5 -100t-9 -116.5q36 29 59 60.5t36 61t17.5 55.5t4.5 44q0 52 -8.5 71.5t-28.5 19.5z" />
    <glyph glyph-name="glyph5" horiz-adv-x="807" 
d="M420 924q35 -8 49.5 -19.5t14.5 -25.5q0 -15 -15 -30t-38.5 -27t-53 -20t-58.5 -8q-13 0 -16.5 6.5t-3.5 9.5q37 13 59 26.5t34 27.5t17.5 29t10.5 31zM538 388q0 -39 12.5 -90t36.5 -108q31 52 46 108.5t15 104.5t-14 79t-41 31q-23 0 -39 -34t-16 -91zM444 225
q0 57 11 113.5t32 102t50 73.5t65 28q37 0 55 -34.5t18 -89.5q0 -57 -19 -125t-56 -133q25 -54 59 -108.5t76 -103t91 -87.5t104 -62q-34 -39 -69 -56.5t-70 -17.5q-46 0 -90.5 25.5t-84 67.5t-72.5 96.5t-56 112.5q-43 -34 -94.5 -54t-113.5 -20q-86 0 -148 25.5
t-102.5 68.5t-60 100t-19.5 120q0 57 15.5 117t45.5 116t73.5 105t99 85.5t123.5 58t146 21.5q49 0 86 -12.5t61.5 -31t37 -41t12.5 -41.5q0 -22 -15 -36.5t-45 -14.5q-16 0 -31 4q-3 45 -18.5 73t-37.5 43t-46 20.5t-45 5.5q-65 0 -111.5 -31.5t-77 -83t-45 -117
t-14.5 -132.5q0 -63 12 -122t35 -105t56.5 -74t76.5 -28q36 0 67.5 8t58.5 22q-26 81 -26 149z" />
    <glyph glyph-name="glyph6" horiz-adv-x="737" 
d="M395 1010q35 -8 49.5 -19.5t14.5 -25.5q0 -15 -15 -30t-38.5 -27t-53 -20t-58.5 -8q-13 0 -16.5 6.5t-3.5 9.5q37 13 59 26.5t34 27.5t17.5 29t10.5 31zM-50 -87q38 0 67.5 20.5t52 56t40 84t31.5 104.5q-52 -28 -94.5 -57t-73 -57t-47 -55t-16.5 -51t11.5 -34.5
t28.5 -10.5zM326 768q-23 0 -37.5 -44.5t-26 -115.5t-23 -159.5t-29.5 -177.5q38 23 79 44.5t84 42.5q0 51 1 99t1 93q0 46 -4 86t-10.5 69.5t-15.5 46t-19 16.5zM699 -532q-62 0 -110 32t-84 88t-60.5 133t-40 168t-23 191t-8.5 203q-94 -36 -178 -77q-16 -65 -37.5 -123
t-51 -101.5t-68 -69t-89.5 -25.5q-33 0 -55.5 17t-22.5 58q0 26 21 58t58.5 68t90 74t114.5 77q14 68 26 139.5t24.5 139.5t27 128.5t34.5 106t46 72t62 26.5q30 0 58.5 -27t45.5 -87q16 -56 24.5 -136t15.5 -175q82 36 163.5 65.5t158.5 51.5t146 34t125 12q81 0 128 -27.5
t47 -91.5q0 -30 -8 -66t-26 -81q-37 49 -108 70t-165 21q-101 0 -218.5 -21.5t-235.5 -57.5q6 -89 14.5 -181.5t23 -178.5t37 -162t57.5 -132.5t83.5 -89.5t115.5 -33q46 0 98 16q-76 -56 -139.5 -81t-116.5 -25z" />
    <glyph glyph-name="glyph8" horiz-adv-x="807" 
d="M329 930q3 8 13.5 12t23.5 4q14 0 25.5 -4t14.5 -12q13 -33 32.5 -63.5t55.5 -52.5q0 -3 -3.5 -9.5t-16.5 -6.5q-38 0 -65 17t-42 40q-15 -23 -41.5 -40t-64.5 -17q-13 0 -16.5 6.5t-3.5 9.5q38 23 57.5 54t30.5 62zM538 388q0 -39 12.5 -90t36.5 -108q31 52 46 108.5
t15 104.5t-14 79t-41 31q-23 0 -39 -34t-16 -91zM444 225q0 57 11 113.5t32 102t50 73.5t65 28q37 0 55 -34.5t18 -89.5q0 -57 -19 -125t-56 -133q25 -54 59 -108.5t76 -103t91 -87.5t104 -62q-34 -39 -69 -56.5t-70 -17.5q-46 0 -90.5 25.5t-84 67.5t-72.5 96.5t-56 112.5
q-43 -34 -94.5 -54t-113.5 -20q-86 0 -148 25.5t-102.5 68.5t-60 100t-19.5 120q0 57 15.5 117t45.5 116t73.5 105t99 85.5t123.5 58t146 21.5q49 0 86 -12.5t61.5 -31t37 -41t12.5 -41.5q0 -22 -15 -36.5t-45 -14.5q-16 0 -31 4q-3 45 -18.5 73t-37.5 43t-46 20.5t-45 5.5
q-65 0 -111.5 -31.5t-77 -83t-45 -117t-14.5 -132.5q0 -63 12 -122t35 -105t56.5 -74t76.5 -28q36 0 67.5 8t58.5 22q-26 81 -26 149z" />
    <glyph glyph-name="glyph9" horiz-adv-x="737" 
d="M329 998q3 8 13.5 12t23.5 4q14 0 25.5 -4t14.5 -12q13 -33 32.5 -63.5t55.5 -52.5q0 -3 -3.5 -9.5t-16.5 -6.5q-38 0 -65 17t-42 40q-15 -23 -41.5 -40t-64.5 -17q-13 0 -16.5 6.5t-3.5 9.5q38 23 57.5 54t30.5 62zM-50 -87q38 0 67.5 20.5t52 56t40 84t31.5 104.5
q-52 -28 -94.5 -57t-73 -57t-47 -55t-16.5 -51t11.5 -34.5t28.5 -10.5zM326 768q-23 0 -37.5 -44.5t-26 -115.5t-23 -159.5t-29.5 -177.5q38 23 79 44.5t84 42.5q0 51 1 99t1 93q0 46 -4 86t-10.5 69.5t-15.5 46t-19 16.5zM699 -532q-62 0 -110 32t-84 88t-60.5 133t-40 168
t-23 191t-8.5 203q-94 -36 -178 -77q-16 -65 -37.5 -123t-51 -101.5t-68 -69t-89.5 -25.5q-33 0 -55.5 17t-22.5 58q0 26 21 58t58.5 68t90 74t114.5 77q14 68 26 139.5t24.5 139.5t27 128.5t34.5 106t46 72t62 26.5q30 0 58.5 -27t45.5 -87q16 -56 24.5 -136t15.5 -175
q82 36 163.5 65.5t158.5 51.5t146 34t125 12q81 0 128 -27.5t47 -91.5q0 -30 -8 -66t-26 -81q-37 49 -108 70t-165 21q-101 0 -218.5 -21.5t-235.5 -57.5q6 -89 14.5 -181.5t23 -178.5t37 -162t57.5 -132.5t83.5 -89.5t115.5 -33q46 0 98 16q-76 -56 -139.5 -81t-116.5 -25z
" />
    <glyph glyph-name="glyph11" horiz-adv-x="807" 
d="M365 857q0 -26 -19.5 -40t-42.5 -14q-20 0 -35 10.5t-15 33.5q0 26 19.5 40t42.5 14q20 0 35 -10.5t15 -33.5zM577 857q0 -26 -19.5 -40t-42.5 -14q-20 0 -35 10.5t-15 33.5q0 26 19.5 40t42.5 14q20 0 35 -10.5t15 -33.5zM444 225q0 57 11 113.5t32 102t50 73.5t65 28
q37 0 55 -34.5t18 -89.5q0 -57 -19 -125t-56 -133q25 -54 59 -108.5t76 -103t91 -87.5t104 -62q-34 -39 -69 -56.5t-70 -17.5q-46 0 -90.5 25.5t-84 67.5t-72.5 96.5t-56 112.5q-43 -34 -94.5 -54t-113.5 -20q-86 0 -148 25.5t-102.5 68.5t-60 100t-19.5 120q0 57 15.5 117
t45.5 116t73.5 105t99 85.5t123.5 58t146 21.5q49 0 86 -12.5t61.5 -31t37 -41t12.5 -41.5q0 -22 -15 -36.5t-45 -14.5q-16 0 -31 4q-3 45 -18.5 73t-37.5 43t-46 20.5t-45 5.5q-65 0 -111.5 -31.5t-77 -83t-45 -117t-14.5 -132.5q0 -63 12 -122t35 -105t56.5 -74t76.5 -28
q36 0 67.5 8t58.5 22q-26 81 -26 149zM538 388q0 -39 12.5 -90t36.5 -108q31 52 46 108.5t15 104.5t-14 79t-41 31q-23 0 -39 -34t-16 -91z" />
    <glyph glyph-name="glyph12" horiz-adv-x="737" 
d="M517 936q0 -26 -19.5 -40t-42.5 -14q-20 0 -35 10.5t-15 33.5q0 26 19.5 40t42.5 14q20 0 35 -10.5t15 -33.5zM305 936q0 -26 -19.5 -40t-42.5 -14q-20 0 -35 10.5t-15 33.5q0 26 19.5 40t42.5 14q20 0 35 -10.5t15 -33.5zM-50 -87q38 0 67.5 20.5t52 56t40 84
t31.5 104.5q-52 -28 -94.5 -57t-73 -57t-47 -55t-16.5 -51t11.5 -34.5t28.5 -10.5zM326 768q-23 0 -37.5 -44.5t-26 -115.5t-23 -159.5t-29.5 -177.5q38 23 79 44.5t84 42.5q0 51 1 99t1 93q0 46 -4 86t-10.5 69.5t-15.5 46t-19 16.5zM699 -532q-62 0 -110 32t-84 88
t-60.5 133t-40 168t-23 191t-8.5 203q-94 -36 -178 -77q-16 -65 -37.5 -123t-51 -101.5t-68 -69t-89.5 -25.5q-33 0 -55.5 17t-22.5 58q0 26 21 58t58.5 68t90 74t114.5 77q14 68 26 139.5t24.5 139.5t27 128.5t34.5 106t46 72t62 26.5q30 0 58.5 -27t45.5 -87
q16 -56 24.5 -136t15.5 -175q82 36 163.5 65.5t158.5 51.5t146 34t125 12q81 0 128 -27.5t47 -91.5q0 -30 -8 -66t-26 -81q-37 49 -108 70t-165 21q-101 0 -218.5 -21.5t-235.5 -57.5q6 -89 14.5 -181.5t23 -178.5t37 -162t57.5 -132.5t83.5 -89.5t115.5 -33q46 0 98 16
q-76 -56 -139.5 -81t-116.5 -25z" />
    <glyph glyph-name="glyph14" horiz-adv-x="807" 
d="M378 932q5 -16 10.5 -31t17.5 -29t34 -27.5t59 -26.5q0 -3 -3.5 -9.5t-16.5 -6.5q-29 0 -58.5 6.5t-53 17t-38.5 24t-15 28.5q0 14 14.5 30t49.5 24zM538 388q0 -39 12.5 -90t36.5 -108q31 52 46 108.5t15 104.5t-14 79t-41 31q-23 0 -39 -34t-16 -91zM444 225
q0 57 11 113.5t32 102t50 73.5t65 28q37 0 55 -34.5t18 -89.5q0 -57 -19 -125t-56 -133q25 -54 59 -108.5t76 -103t91 -87.5t104 -62q-34 -39 -69 -56.5t-70 -17.5q-46 0 -90.5 25.5t-84 67.5t-72.5 96.5t-56 112.5q-43 -34 -94.5 -54t-113.5 -20q-86 0 -148 25.5
t-102.5 68.5t-60 100t-19.5 120q0 57 15.5 117t45.5 116t73.5 105t99 85.5t123.5 58t146 21.5q49 0 86 -12.5t61.5 -31t37 -41t12.5 -41.5q0 -22 -15 -36.5t-45 -14.5q-16 0 -31 4q-3 45 -18.5 73t-37.5 43t-46 20.5t-45 5.5q-65 0 -111.5 -31.5t-77 -83t-45 -117
t-14.5 -132.5q0 -63 12 -122t35 -105t56.5 -74t76.5 -28q36 0 67.5 8t58.5 22q-26 81 -26 149z" />
    <glyph glyph-name="glyph15" horiz-adv-x="737" 
d="M348 1010q5 -16 10.5 -31t17.5 -29t34 -27.5t59 -26.5q0 -3 -3.5 -9.5t-16.5 -6.5q-29 0 -58.5 6.5t-53 17t-38.5 24t-15 28.5q0 14 14.5 30t49.5 24zM-50 -87q38 0 67.5 20.5t52 56t40 84t31.5 104.5q-52 -28 -94.5 -57t-73 -57t-47 -55t-16.5 -51t11.5 -34.5
t28.5 -10.5zM326 768q-23 0 -37.5 -44.5t-26 -115.5t-23 -159.5t-29.5 -177.5q38 23 79 44.5t84 42.5q0 51 1 99t1 93q0 46 -4 86t-10.5 69.5t-15.5 46t-19 16.5zM699 -532q-62 0 -110 32t-84 88t-60.5 133t-40 168t-23 191t-8.5 203q-94 -36 -178 -77q-16 -65 -37.5 -123
t-51 -101.5t-68 -69t-89.5 -25.5q-33 0 -55.5 17t-22.5 58q0 26 21 58t58.5 68t90 74t114.5 77q14 68 26 139.5t24.5 139.5t27 128.5t34.5 106t46 72t62 26.5q30 0 58.5 -27t45.5 -87q16 -56 24.5 -136t15.5 -175q82 36 163.5 65.5t158.5 51.5t146 34t125 12q81 0 128 -27.5
t47 -91.5q0 -30 -8 -66t-26 -81q-37 49 -108 70t-165 21q-101 0 -218.5 -21.5t-235.5 -57.5q6 -89 14.5 -181.5t23 -178.5t37 -162t57.5 -132.5t83.5 -89.5t115.5 -33q46 0 98 16q-76 -56 -139.5 -81t-116.5 -25z" />
    <glyph glyph-name="glyph17" horiz-adv-x="807" 
d="M444 225q0 57 11 113.5t32 102t50 73.5t65 28q37 0 55 -34.5t18 -89.5q0 -57 -19 -125t-56 -133q25 -54 59 -108.5t76 -103t91 -87.5t104 -62q-34 -39 -69 -56.5t-70 -17.5q-46 0 -90.5 25.5t-84 67.5t-72.5 96.5t-56 112.5q-43 -34 -94.5 -54t-113.5 -20
q-86 0 -148 25.5t-102.5 68.5t-60 100t-19.5 120q0 57 15.5 117t45.5 116t73.5 105t99 85.5t123.5 58t146 21.5q49 0 86 -12.5t61.5 -31t37 -41t12.5 -41.5q0 -22 -15 -36.5t-45 -14.5q-16 0 -31 4q-3 45 -18.5 73t-37.5 43t-46 20.5t-45 5.5q-65 0 -111.5 -31.5t-77 -83
t-45 -117t-14.5 -132.5q0 -63 12 -122t35 -105t56.5 -74t76.5 -28q36 0 67.5 8t58.5 22q-26 81 -26 149zM538 388q0 -39 12.5 -90t36.5 -108q31 52 46 108.5t15 104.5t-14 79t-41 31q-23 0 -39 -34t-16 -91zM403 915q34 0 50.5 -17.5t16.5 -39.5t-17.5 -40.5t-52.5 -18.5
q-33 0 -50.5 18.5t-17.5 40.5t17.5 39.5t53.5 17.5zM404 833q13 0 19 7.5t6 16.5q0 10 -7 18.5t-23 8.5q-13 0 -19.5 -8t-6.5 -17q0 -10 7.5 -18t23.5 -8z" />
    <glyph glyph-name="glyph18" horiz-adv-x="737" 
d="M699 -532q-62 0 -110 32t-84 88t-60.5 133t-40 168t-23 191t-8.5 203q-94 -36 -178 -77q-16 -65 -37.5 -123t-51 -101.5t-68 -69t-89.5 -25.5q-33 0 -55.5 17t-22.5 58q0 26 21 58t58.5 68t90 74t114.5 77q14 68 26 139.5t24.5 139.5t27 128.5t34.5 106t46 72t62 26.5
q30 0 58.5 -27t45.5 -87q16 -56 24.5 -136t15.5 -175q82 36 163.5 65.5t158.5 51.5t146 34t125 12q81 0 128 -27.5t47 -91.5q0 -30 -8 -66t-26 -81q-37 49 -108 70t-165 21q-101 0 -218.5 -21.5t-235.5 -57.5q6 -89 14.5 -181.5t23 -178.5t37 -162t57.5 -132.5t83.5 -89.5
t115.5 -33q46 0 98 16q-76 -56 -139.5 -81t-116.5 -25zM326 768q-23 0 -37.5 -44.5t-26 -115.5t-23 -159.5t-29.5 -177.5q38 23 79 44.5t84 42.5q0 51 1 99t1 93q0 46 -4 86t-10.5 69.5t-15.5 46t-19 16.5zM-50 -87q38 0 67.5 20.5t52 56t40 84t31.5 104.5
q-52 -28 -94.5 -57t-73 -57t-47 -55t-16.5 -51t11.5 -34.5t28.5 -10.5zM368 1005q34 0 50.5 -17.5t16.5 -39.5t-17.5 -40.5t-52.5 -18.5q-33 0 -50.5 18.5t-17.5 40.5t17.5 39.5t53.5 17.5zM369 923q13 0 19 7.5t6 16.5q0 10 -7 18.5t-23 8.5q-13 0 -19.5 -8t-6.5 -17
q0 -10 7.5 -18t23.5 -8z" />
    <glyph glyph-name="glyph20" horiz-adv-x="807" 
d="M508 910q13 -11 18.5 -24.5t5.5 -27.5q0 -23 -13.5 -40t-39.5 -17q-9 0 -24.5 5t-33.5 11.5t-37 11.5t-35 5q-17 0 -29 -7t-17 -24q-14 32 -14 52q0 23 16 30t41 7q20 0 42.5 -2t44.5 -2q23 0 42.5 4t32.5 18zM538 388q0 -39 12.5 -90t36.5 -108q31 52 46 108.5t15 104.5
t-14 79t-41 31q-23 0 -39 -34t-16 -91zM444 225q0 57 11 113.5t32 102t50 73.5t65 28q37 0 55 -34.5t18 -89.5q0 -57 -19 -125t-56 -133q25 -54 59 -108.5t76 -103t91 -87.5t104 -62q-34 -39 -69 -56.5t-70 -17.5q-46 0 -90.5 25.5t-84 67.5t-72.5 96.5t-56 112.5
q-43 -34 -94.5 -54t-113.5 -20q-86 0 -148 25.5t-102.5 68.5t-60 100t-19.5 120q0 57 15.5 117t45.5 116t73.5 105t99 85.5t123.5 58t146 21.5q49 0 86 -12.5t61.5 -31t37 -41t12.5 -41.5q0 -22 -15 -36.5t-45 -14.5q-16 0 -31 4q-3 45 -18.5 73t-37.5 43t-46 20.5t-45 5.5
q-65 0 -111.5 -31.5t-77 -83t-45 -117t-14.5 -132.5q0 -63 12 -122t35 -105t56.5 -74t76.5 -28q36 0 67.5 8t58.5 22q-26 81 -26 149z" />
    <glyph glyph-name="glyph21" horiz-adv-x="737" 
d="M470 998q13 -11 18.5 -24.5t5.5 -27.5q0 -23 -13.5 -40t-39.5 -17q-9 0 -24.5 5t-33.5 11.5t-37 11.5t-35 5q-17 0 -29 -7t-17 -24q-14 32 -14 52q0 23 16 30t41 7q20 0 42.5 -2t44.5 -2q23 0 42.5 4t32.5 18zM-50 -87q38 0 67.5 20.5t52 56t40 84t31.5 104.5
q-52 -28 -94.5 -57t-73 -57t-47 -55t-16.5 -51t11.5 -34.5t28.5 -10.5zM326 768q-23 0 -37.5 -44.5t-26 -115.5t-23 -159.5t-29.5 -177.5q38 23 79 44.5t84 42.5q0 51 1 99t1 93q0 46 -4 86t-10.5 69.5t-15.5 46t-19 16.5zM699 -532q-62 0 -110 32t-84 88t-60.5 133t-40 168
t-23 191t-8.5 203q-94 -36 -178 -77q-16 -65 -37.5 -123t-51 -101.5t-68 -69t-89.5 -25.5q-33 0 -55.5 17t-22.5 58q0 26 21 58t58.5 68t90 74t114.5 77q14 68 26 139.5t24.5 139.5t27 128.5t34.5 106t46 72t62 26.5q30 0 58.5 -27t45.5 -87q16 -56 24.5 -136t15.5 -175
q82 36 163.5 65.5t158.5 51.5t146 34t125 12q81 0 128 -27.5t47 -91.5q0 -30 -8 -66t-26 -81q-37 49 -108 70t-165 21q-101 0 -218.5 -21.5t-235.5 -57.5q6 -89 14.5 -181.5t23 -178.5t37 -162t57.5 -132.5t83.5 -89.5t115.5 -33q46 0 98 16q-76 -56 -139.5 -81t-116.5 -25z
" />
    <glyph glyph-name="glyph23" horiz-adv-x="885" 
d="M425 446q12 0 24 -0.5t24 -1.5q28 56 28 119q0 34 -9.5 67t-29 58t-49.5 40.5t-71 15.5q-47 0 -96 -23t-88.5 -66.5t-65 -105.5t-25.5 -140q-30 -11 -49 -11q-24 0 -37 17t-13 42q0 52 21 98t57 84t84 68t102 50.5t110 31.5t109 11q65 0 110 -11t73.5 -30.5t41 -45
t12.5 -55.5q0 -28 -10 -57.5t-27 -59.5t-41 -58t-52 -53q56 -14 96 -40t65.5 -61.5t37.5 -78t12 -90.5q0 -63 -19 -130.5t-54 -134.5q54 7 111 10.5t119 3.5q125 0 251 -11t241 -32t214.5 -52.5t172.5 -72.5t115 -91.5t42 -110.5q0 -31 -10 -65t-32 -70q-2 39 -36 76.5
t-92.5 72.5t-138 67t-173.5 59.5t-199 50t-213.5 38.5t-217 25t-210.5 10q-42 -60 -95.5 -113t-114 -92t-127 -61.5t-135.5 -22.5q-59 0 -87 17t-28 45q0 30 31 69t90.5 78.5t146.5 76.5t199 64q34 75 51.5 154.5t17.5 151.5q0 74 -19 133t-59 91q-42 -29 -85 -45.5
t-85 -16.5q-19 0 -30 8.5t-11 25.5q0 13 8.5 27t24.5 26t39.5 19.5t52.5 7.5zM295 -107q-1 -9 -13.5 -16.5t-26.5 -7.5q-1 0 -10.5 25.5t-23 68t-29.5 97.5t-29.5 114t-22.5 117t-9 107q0 51 6.5 96t22.5 78.5t42.5 53.5t65.5 20h5q-8 -53 -11.5 -110t-3.5 -119
q0 -119 11 -250t26 -274zM138 -443q56 0 106.5 18t94 50t80.5 75.5t66 93.5q-96 -12 -168.5 -38.5t-121 -57t-73.5 -61t-25 -51.5q0 -29 41 -29zM344 356q36 0 65 17t49 46q-20 5 -37 5q-19 0 -36 -5t-30 -12.5t-21 -16t-8 -16.5q0 -18 18 -18z" />
    <glyph glyph-name="glyph24" horiz-adv-x="885" 
d="M425 446q12 0 24 -0.5t24 -1.5q28 56 28 119q0 34 -9.5 67t-29 58t-49.5 40.5t-71 15.5q-47 0 -96 -23t-88.5 -66.5t-65 -105.5t-25.5 -140q-30 -11 -49 -11q-24 0 -37 17t-13 42q0 52 21 98t57 84t84 68t102 50.5t110 31.5t109 11q65 0 110 -11t73.5 -30.5t41 -45
t12.5 -55.5q0 -28 -10 -57.5t-27 -59.5t-41 -58t-52 -53q56 -14 96 -40t65.5 -61.5t37.5 -78t12 -90.5q0 -63 -18.5 -129.5t-52.5 -132.5q71 11 140.5 17.5t135.5 6.5q85 0 159.5 -11.5t129.5 -36t86.5 -63.5t31.5 -94q0 -54 -33 -108.5t-79 -100.5q10 27 10 55
q0 41 -23 74.5t-63 60t-95.5 46t-120 32.5t-136 19t-144.5 6h-30t-29 -1q-42 -60 -95 -112t-113.5 -90.5t-126.5 -61t-135 -22.5q-59 0 -87 17t-28 45q0 42 37 82.5t100.5 77.5t148.5 69t180 56q35 76 52.5 156t17.5 153q0 74 -19 133t-59 91q-42 -29 -85 -45.5t-85 -16.5
q-19 0 -30 8.5t-11 25.5q0 13 8.5 27t24.5 26t39.5 19.5t52.5 7.5zM295 -107q-1 -9 -13.5 -16.5t-26.5 -7.5q-1 0 -10.5 25.5t-23 68t-29.5 97.5t-29.5 114t-22.5 117t-9 107q0 51 6.5 96t22.5 78.5t42.5 53.5t65.5 20h5q-8 -53 -11.5 -110t-3.5 -119q0 -119 11 -250
t26 -274zM138 -443q55 0 105 17.5t93 48.5t79.5 73t65.5 91q-80 -11 -150 -29t-122 -43t-82 -57.5t-30 -71.5q0 -29 41 -29zM344 356q36 0 65 17t49 46q-20 5 -37 5q-19 0 -36 -5t-30 -12.5t-21 -16t-8 -16.5q0 -18 18 -18z" />
    <glyph glyph-name="glyph26" horiz-adv-x="735" 
d="M423 745q-46 0 -90.5 -18t-84.5 -48.5t-73.5 -71.5t-58 -87t-38.5 -94t-14 -93q0 -44 14.5 -82.5t46 -67.5t81.5 -46t121 -17q42 0 84.5 7.5t82.5 22.5t75.5 37t64.5 51q31 -47 31 -94q0 -54 -26 -96t-69.5 -70.5t-100 -43.5t-116.5 -15q-69 0 -137 20t-122.5 61t-88 104
t-33.5 149q0 59 15 121t44 119.5t70.5 108t94.5 88t116 59.5t136 22q23 0 43 -3.5t37 -8.5q15 11 32 17t37 6q35 0 57 -11.5t22 -22.5q0 -15 -35 -18q-7 23 -22.5 28.5t-32.5 5.5q-20 0 -39 -14q43 -20 61.5 -55t18.5 -73q0 -26 -8 -51t-21.5 -44t-32 -30.5t-39.5 -11.5
q-42 0 -61 28.5t-19 70.5q0 35 12.5 73t35.5 68q-14 9 -31.5 14.5t-39.5 5.5zM551 595q0 30 -9 61.5t-31 54.5q-20 -29 -31.5 -67t-11.5 -70t11.5 -49t26.5 -17q17 0 31 21t14 66z" />
    <glyph glyph-name="glyph27" horiz-adv-x="357" 
d="M450 -310q-131 0 -226.5 41t-157.5 108.5t-92 155.5t-30 183q0 72 16.5 143.5t48.5 137.5t79.5 123t108.5 99t136 66t162 24q23 0 43 -3.5t37 -8.5q15 11 32 17t37 6q35 0 57 -11.5t22 -22.5q0 -15 -35 -18q-7 23 -22.5 28.5t-32.5 5.5q-20 0 -39 -14q43 -20 61.5 -55
t18.5 -73q0 -26 -8 -51t-21.5 -44t-32 -30.5t-39.5 -11.5q-42 0 -61 28.5t-19 70.5q0 35 12.5 73t35.5 68q-14 9 -31.5 14.5t-39.5 5.5q-82 0 -147 -42.5t-110 -112t-68.5 -158t-23.5 -180.5q0 -91 24 -177.5t75 -154t129.5 -109t187.5 -41.5q67 0 145 12t165 30t182.5 39
t197.5 39t210 30t220 12q103 0 194 -13t158 -44t106 -82.5t39 -127.5q0 -42 -22.5 -91t-72.5 -106q-43 105 -114.5 175t-161.5 111.5t-194.5 59t-213.5 17.5q-131 0 -256.5 -22t-243.5 -48.5t-225 -48.5t-200 -22zM598 595q0 30 -9 61.5t-31 54.5q-20 -29 -31.5 -67
t-11.5 -70t11.5 -49t26.5 -17q17 0 31 21t14 66z" />
    <glyph glyph-name="glyph30" horiz-adv-x="919" 
d="M1820 -596q-3 50 -58.5 98.5t-149 92t-216 80t-260 64t-281 44t-278.5 19.5q-52 -63 -111 -115.5t-124 -91t-134 -60t-140 -21.5q-59 0 -87 17t-28 45q0 32 36 74.5t105 85.5t169.5 81.5t229.5 62.5q31 56 55.5 116.5t41.5 122.5t25.5 123.5t8.5 120.5q0 79 -16.5 148.5
t-51 121t-88 81.5t-126.5 30q-47 0 -96 -23t-88.5 -66.5t-65 -105.5t-25.5 -140q-30 -11 -49 -11q-24 0 -37 17t-13 42q0 52 21 98t57 84t84 68t102 50.5t110 31.5t109 11q101 0 173 -28.5t117.5 -78.5t66.5 -117.5t21 -145.5q0 -62 -12.5 -129t-36 -135t-56.5 -135
t-75 -130q42 4 86 6t91 2q125 0 251 -11t241 -32t214.5 -52.5t172.5 -72.5t115 -91.5t42 -110.5q0 -31 -10 -65t-32 -70zM295 -107q-1 -9 -13.5 -16.5t-26.5 -7.5q-1 0 -10.5 25.5t-23 68t-29.5 97.5t-29.5 114t-22.5 117t-9 107q0 51 6.5 96t22.5 78.5t42.5 53.5t65.5 20h5
q-8 -53 -11.5 -110t-3.5 -119q0 -119 11 -250t26 -274zM38 -443q62 0 118.5 18t107.5 50t96 77t83 98q-110 -8 -193.5 -34t-139.5 -58.5t-84.5 -66t-28.5 -55.5q0 -29 41 -29z" />
    <glyph glyph-name="glyph32" horiz-adv-x="725" 
d="M654 142q0 -54 -26 -96t-69.5 -70.5t-100 -43.5t-116.5 -15q-69 0 -137 20t-122.5 61t-88 104t-33.5 149q0 43 11.5 84.5t34.5 76.5t59 61.5t85 40.5q-12 37 -12 78q0 47 19 83.5t50 61.5t69 38t76 13q27 0 56 -8q15 11 32.5 18t37.5 7q35 0 57 -11.5t22 -22.5
q0 -7 -12 -16t-31 -11q-13 43 -47 43q-11 0 -20.5 -4t-19.5 -10q35 -16 58 -47.5t23 -80.5q0 -26 -8 -51t-21.5 -44t-32 -30.5t-39.5 -11.5q-41 0 -59.5 29t-18.5 71q0 33 11 69.5t32 65.5q-19 8 -38 8q-26 0 -53.5 -12.5t-49.5 -35.5t-36 -55t-14 -70q0 -15 1 -29t3 -27
q30 6 66 6q48 0 73 -23t25 -48q0 -20 -16 -35t-49 -15q-45 0 -77 25t-49 63q-57 -21 -85.5 -66t-28.5 -95q0 -56 22 -96.5t59.5 -67t86.5 -39.5t103 -13q42 0 84.5 7.5t82.5 22.5t75.5 37t64.5 51q31 -47 31 -94zM433 618q0 43 -12 71t-31 43q-20 -29 -31 -66t-11 -69
q0 -30 12 -50.5t39 -20.5q14 0 24 27.5t10 64.5zM244 509q-26 0 -54 -5q10 -33 32 -53.5t64 -20.5q18 0 27 9t9 21q0 17 -18.5 33t-59.5 16z" />
    <glyph glyph-name="glyph33" horiz-adv-x="458" 
d="M2052 -532q-43 105 -114.5 175t-161.5 111.5t-194.5 59t-213.5 17.5q-131 0 -256.5 -22t-243.5 -48.5t-225 -48.5t-200 -22q-128 0 -221.5 38t-154.5 99.5t-90.5 139.5t-29.5 159q0 65 18.5 128t55 115.5t90.5 91t124 55.5q-6 18 -8.5 37t-2.5 39q0 47 19 83.5t50 61.5
t69 38t76 13q27 0 56 -8q15 11 32.5 18t37.5 7q35 0 57 -11.5t22 -22.5q0 -7 -12 -16t-31 -11q-13 43 -47 43q-11 0 -20.5 -4t-19.5 -10q35 -16 58 -47.5t23 -80.5q0 -26 -8 -51t-21.5 -44t-32 -30.5t-39.5 -11.5q-41 0 -59.5 29t-18.5 71q0 33 11 69.5t32 65.5q-19 8 -38 8
q-26 0 -53.5 -12.5t-49.5 -35.5t-36 -55t-14 -70q0 -32 4 -55q16 2 32.5 3.5t33.5 1.5q48 0 73 -23t25 -48q0 -20 -16 -35t-49 -15q-44 0 -75 23t-49 60q-60 -31 -90 -100.5t-30 -155.5q0 -79 25.5 -161t76 -149.5t126 -110.5t176.5 -43q67 0 145 12t165 30t182.5 39
t197.5 39t210 30t220 12q103 0 194 -13t158 -44t106 -82.5t39 -127.5q0 -42 -22.5 -91t-72.5 -106zM518 618q0 43 -12 71t-31 43q-20 -29 -31 -66t-11 -69q0 -30 12 -50.5t39 -20.5q14 0 24 27.5t10 64.5zM329 509q-14 0 -27.5 -2t-25.5 -5q10 -32 32 -52t63 -20q18 0 27 9
t9 21q0 17 -18.5 33t-59.5 16z" />
    <glyph glyph-name="glyph35" horiz-adv-x="725" 
d="M344 932q35 -8 49.5 -19.5t14.5 -25.5q0 -15 -15 -30t-38.5 -27t-53 -20t-58.5 -8q-13 0 -16.5 6.5t-3.5 9.5q37 13 59 26.5t34 27.5t17.5 29t10.5 31zM654 142q0 -54 -26 -96t-69.5 -70.5t-100 -43.5t-116.5 -15q-69 0 -137 20t-122.5 61t-88 104t-33.5 149
q0 43 11.5 84.5t34.5 76.5t59 61.5t85 40.5q-12 37 -12 78q0 47 19 83.5t50 61.5t69 38t76 13q27 0 56 -8q15 11 32.5 18t37.5 7q35 0 57 -11.5t22 -22.5q0 -7 -12 -16t-31 -11q-13 43 -47 43q-11 0 -20.5 -4t-19.5 -10q35 -16 58 -47.5t23 -80.5q0 -26 -8 -51t-21.5 -44
t-32 -30.5t-39.5 -11.5q-41 0 -59.5 29t-18.5 71q0 33 11 69.5t32 65.5q-19 8 -38 8q-26 0 -53.5 -12.5t-49.5 -35.5t-36 -55t-14 -70q0 -15 1 -29t3 -27q30 6 66 6q48 0 73 -23t25 -48q0 -20 -16 -35t-49 -15q-45 0 -77 25t-49 63q-57 -21 -85.5 -66t-28.5 -95
q0 -56 22 -96.5t59.5 -67t86.5 -39.5t103 -13q42 0 84.5 7.5t82.5 22.5t75.5 37t64.5 51q31 -47 31 -94zM433 618q0 43 -12 71t-31 43q-20 -29 -31 -66t-11 -69q0 -30 12 -50.5t39 -20.5q14 0 24 27.5t10 64.5zM244 509q-26 0 -54 -5q10 -33 32 -53.5t64 -20.5q18 0 27 9
t9 21q0 17 -18.5 33t-59.5 16z" />
    <glyph glyph-name="glyph36" horiz-adv-x="458" 
d="M425 932q35 -8 49.5 -19.5t14.5 -25.5q0 -15 -15 -30t-38.5 -27t-53 -20t-58.5 -8q-13 0 -16.5 6.5t-3.5 9.5q37 13 59 26.5t34 27.5t17.5 29t10.5 31zM329 509q-14 0 -27.5 -2t-25.5 -5q10 -32 32 -52t63 -20q18 0 27 9t9 21q0 17 -18.5 33t-59.5 16zM518 618
q0 43 -12 71t-31 43q-20 -29 -31 -66t-11 -69q0 -30 12 -50.5t39 -20.5q14 0 24 27.5t10 64.5zM2052 -532q-43 105 -114.5 175t-161.5 111.5t-194.5 59t-213.5 17.5q-131 0 -256.5 -22t-243.5 -48.5t-225 -48.5t-200 -22q-128 0 -221.5 38t-154.5 99.5t-90.5 139.5
t-29.5 159q0 65 18.5 128t55 115.5t90.5 91t124 55.5q-6 18 -8.5 37t-2.5 39q0 47 19 83.5t50 61.5t69 38t76 13q27 0 56 -8q15 11 32.5 18t37.5 7q35 0 57 -11.5t22 -22.5q0 -7 -12 -16t-31 -11q-13 43 -47 43q-11 0 -20.5 -4t-19.5 -10q35 -16 58 -47.5t23 -80.5
q0 -26 -8 -51t-21.5 -44t-32 -30.5t-39.5 -11.5q-41 0 -59.5 29t-18.5 71q0 33 11 69.5t32 65.5q-19 8 -38 8q-26 0 -53.5 -12.5t-49.5 -35.5t-36 -55t-14 -70q0 -32 4 -55q16 2 32.5 3.5t33.5 1.5q48 0 73 -23t25 -48q0 -20 -16 -35t-49 -15q-44 0 -75 23t-49 60
q-60 -31 -90 -100.5t-30 -155.5q0 -79 25.5 -161t76 -149.5t126 -110.5t176.5 -43q67 0 145 12t165 30t182.5 39t197.5 39t210 30t220 12q103 0 194 -13t158 -44t106 -82.5t39 -127.5q0 -42 -22.5 -91t-72.5 -106z" />
    <glyph glyph-name="glyph38" horiz-adv-x="725" 
d="M280 958q3 8 13.5 12t23.5 4q14 0 25.5 -4t14.5 -12q13 -33 32.5 -63.5t55.5 -52.5q0 -3 -3.5 -9.5t-16.5 -6.5q-38 0 -65 17t-42 40q-15 -23 -41.5 -40t-64.5 -17q-13 0 -16.5 6.5t-3.5 9.5q38 23 57.5 54t30.5 62zM244 509q-26 0 -54 -5q10 -33 32 -53.5t64 -20.5
q18 0 27 9t9 21q0 17 -18.5 33t-59.5 16zM433 618q0 43 -12 71t-31 43q-20 -29 -31 -66t-11 -69q0 -30 12 -50.5t39 -20.5q14 0 24 27.5t10 64.5zM654 142q0 -54 -26 -96t-69.5 -70.5t-100 -43.5t-116.5 -15q-69 0 -137 20t-122.5 61t-88 104t-33.5 149q0 43 11.5 84.5
t34.5 76.5t59 61.5t85 40.5q-12 37 -12 78q0 47 19 83.5t50 61.5t69 38t76 13q27 0 56 -8q15 11 32.5 18t37.5 7q35 0 57 -11.5t22 -22.5q0 -7 -12 -16t-31 -11q-13 43 -47 43q-11 0 -20.5 -4t-19.5 -10q35 -16 58 -47.5t23 -80.5q0 -26 -8 -51t-21.5 -44t-32 -30.5
t-39.5 -11.5q-41 0 -59.5 29t-18.5 71q0 33 11 69.5t32 65.5q-19 8 -38 8q-26 0 -53.5 -12.5t-49.5 -35.5t-36 -55t-14 -70q0 -15 1 -29t3 -27q30 6 66 6q48 0 73 -23t25 -48q0 -20 -16 -35t-49 -15q-45 0 -77 25t-49 63q-57 -21 -85.5 -66t-28.5 -95q0 -56 22 -96.5
t59.5 -67t86.5 -39.5t103 -13q42 0 84.5 7.5t82.5 22.5t75.5 37t64.5 51q31 -47 31 -94z" />
    <glyph glyph-name="glyph39" horiz-adv-x="458" 
d="M396 958q3 8 13.5 12t23.5 4q14 0 25.5 -4t14.5 -12q13 -33 32.5 -63.5t55.5 -52.5q0 -3 -3.5 -9.5t-16.5 -6.5q-38 0 -65 17t-42 40q-15 -23 -41.5 -40t-64.5 -17q-13 0 -16.5 6.5t-3.5 9.5q38 23 57.5 54t30.5 62zM2052 -532q-43 105 -114.5 175t-161.5 111.5
t-194.5 59t-213.5 17.5q-131 0 -256.5 -22t-243.5 -48.5t-225 -48.5t-200 -22q-128 0 -221.5 38t-154.5 99.5t-90.5 139.5t-29.5 159q0 65 18.5 128t55 115.5t90.5 91t124 55.5q-6 18 -8.5 37t-2.5 39q0 47 19 83.5t50 61.5t69 38t76 13q27 0 56 -8q15 11 32.5 18t37.5 7
q35 0 57 -11.5t22 -22.5q0 -7 -12 -16t-31 -11q-13 43 -47 43q-11 0 -20.5 -4t-19.5 -10q35 -16 58 -47.5t23 -80.5q0 -26 -8 -51t-21.5 -44t-32 -30.5t-39.5 -11.5q-41 0 -59.5 29t-18.5 71q0 33 11 69.5t32 65.5q-19 8 -38 8q-26 0 -53.5 -12.5t-49.5 -35.5t-36 -55
t-14 -70q0 -32 4 -55q16 2 32.5 3.5t33.5 1.5q48 0 73 -23t25 -48q0 -20 -16 -35t-49 -15q-44 0 -75 23t-49 60q-60 -31 -90 -100.5t-30 -155.5q0 -79 25.5 -161t76 -149.5t126 -110.5t176.5 -43q67 0 145 12t165 30t182.5 39t197.5 39t210 30t220 12q103 0 194 -13t158 -44
t106 -82.5t39 -127.5q0 -42 -22.5 -91t-72.5 -106zM518 618q0 43 -12 71t-31 43q-20 -29 -31 -66t-11 -69q0 -30 12 -50.5t39 -20.5q14 0 24 27.5t10 64.5zM329 509q-14 0 -27.5 -2t-25.5 -5q10 -32 32 -52t63 -20q18 0 27 9t9 21q0 17 -18.5 33t-59.5 16z" />
    <glyph glyph-name="glyph41" horiz-adv-x="725" 
d="M486 884q0 -26 -19.5 -40t-42.5 -14q-20 0 -35 10.5t-15 33.5q0 26 19.5 40t42.5 14q20 0 35 -10.5t15 -33.5zM274 884q0 -26 -19.5 -40t-42.5 -14q-20 0 -35 10.5t-15 33.5q0 26 19.5 40t42.5 14q20 0 35 -10.5t15 -33.5zM244 509q-26 0 -54 -5q10 -33 32 -53.5
t64 -20.5q18 0 27 9t9 21q0 17 -18.5 33t-59.5 16zM433 618q0 43 -12 71t-31 43q-20 -29 -31 -66t-11 -69q0 -30 12 -50.5t39 -20.5q14 0 24 27.5t10 64.5zM654 142q0 -54 -26 -96t-69.5 -70.5t-100 -43.5t-116.5 -15q-69 0 -137 20t-122.5 61t-88 104t-33.5 149
q0 43 11.5 84.5t34.5 76.5t59 61.5t85 40.5q-12 37 -12 78q0 47 19 83.5t50 61.5t69 38t76 13q27 0 56 -8q15 11 32.5 18t37.5 7q35 0 57 -11.5t22 -22.5q0 -7 -12 -16t-31 -11q-13 43 -47 43q-11 0 -20.5 -4t-19.5 -10q35 -16 58 -47.5t23 -80.5q0 -26 -8 -51t-21.5 -44
t-32 -30.5t-39.5 -11.5q-41 0 -59.5 29t-18.5 71q0 33 11 69.5t32 65.5q-19 8 -38 8q-26 0 -53.5 -12.5t-49.5 -35.5t-36 -55t-14 -70q0 -15 1 -29t3 -27q30 6 66 6q48 0 73 -23t25 -48q0 -20 -16 -35t-49 -15q-45 0 -77 25t-49 63q-57 -21 -85.5 -66t-28.5 -95
q0 -56 22 -96.5t59.5 -67t86.5 -39.5t103 -13q42 0 84.5 7.5t82.5 22.5t75.5 37t64.5 51q31 -47 31 -94z" />
    <glyph glyph-name="glyph42" horiz-adv-x="458" 
d="M567 884q0 -26 -19.5 -40t-42.5 -14q-20 0 -35 10.5t-15 33.5q0 26 19.5 40t42.5 14q20 0 35 -10.5t15 -33.5zM355 884q0 -26 -19.5 -40t-42.5 -14q-20 0 -35 10.5t-15 33.5q0 26 19.5 40t42.5 14q20 0 35 -10.5t15 -33.5zM329 509q-14 0 -27.5 -2t-25.5 -5
q10 -32 32 -52t63 -20q18 0 27 9t9 21q0 17 -18.5 33t-59.5 16zM518 618q0 43 -12 71t-31 43q-20 -29 -31 -66t-11 -69q0 -30 12 -50.5t39 -20.5q14 0 24 27.5t10 64.5zM2052 -532q-43 105 -114.5 175t-161.5 111.5t-194.5 59t-213.5 17.5q-131 0 -256.5 -22t-243.5 -48.5
t-225 -48.5t-200 -22q-128 0 -221.5 38t-154.5 99.5t-90.5 139.5t-29.5 159q0 65 18.5 128t55 115.5t90.5 91t124 55.5q-6 18 -8.5 37t-2.5 39q0 47 19 83.5t50 61.5t69 38t76 13q27 0 56 -8q15 11 32.5 18t37.5 7q35 0 57 -11.5t22 -22.5q0 -7 -12 -16t-31 -11
q-13 43 -47 43q-11 0 -20.5 -4t-19.5 -10q35 -16 58 -47.5t23 -80.5q0 -26 -8 -51t-21.5 -44t-32 -30.5t-39.5 -11.5q-41 0 -59.5 29t-18.5 71q0 33 11 69.5t32 65.5q-19 8 -38 8q-26 0 -53.5 -12.5t-49.5 -35.5t-36 -55t-14 -70q0 -32 4 -55q16 2 32.5 3.5t33.5 1.5
q48 0 73 -23t25 -48q0 -20 -16 -35t-49 -15q-44 0 -75 23t-49 60q-60 -31 -90 -100.5t-30 -155.5q0 -79 25.5 -161t76 -149.5t126 -110.5t176.5 -43q67 0 145 12t165 30t182.5 39t197.5 39t210 30t220 12q103 0 194 -13t158 -44t106 -82.5t39 -127.5q0 -42 -22.5 -91
t-72.5 -106z" />
    <glyph glyph-name="glyph44" horiz-adv-x="725" 
d="M284 952q5 -16 10.5 -31t17.5 -29t34 -27.5t59 -26.5q0 -3 -3.5 -9.5t-16.5 -6.5q-29 0 -58.5 6.5t-53 17t-38.5 24t-15 28.5q0 14 14.5 30t49.5 24zM244 509q-26 0 -54 -5q10 -33 32 -53.5t64 -20.5q18 0 27 9t9 21q0 17 -18.5 33t-59.5 16zM433 618q0 43 -12 71t-31 43
q-20 -29 -31 -66t-11 -69q0 -30 12 -50.5t39 -20.5q14 0 24 27.5t10 64.5zM654 142q0 -54 -26 -96t-69.5 -70.5t-100 -43.5t-116.5 -15q-69 0 -137 20t-122.5 61t-88 104t-33.5 149q0 43 11.5 84.5t34.5 76.5t59 61.5t85 40.5q-12 37 -12 78q0 47 19 83.5t50 61.5t69 38
t76 13q27 0 56 -8q15 11 32.5 18t37.5 7q35 0 57 -11.5t22 -22.5q0 -7 -12 -16t-31 -11q-13 43 -47 43q-11 0 -20.5 -4t-19.5 -10q35 -16 58 -47.5t23 -80.5q0 -26 -8 -51t-21.5 -44t-32 -30.5t-39.5 -11.5q-41 0 -59.5 29t-18.5 71q0 33 11 69.5t32 65.5q-19 8 -38 8
q-26 0 -53.5 -12.5t-49.5 -35.5t-36 -55t-14 -70q0 -15 1 -29t3 -27q30 6 66 6q48 0 73 -23t25 -48q0 -20 -16 -35t-49 -15q-45 0 -77 25t-49 63q-57 -21 -85.5 -66t-28.5 -95q0 -56 22 -96.5t59.5 -67t86.5 -39.5t103 -13q42 0 84.5 7.5t82.5 22.5t75.5 37t64.5 51
q31 -47 31 -94z" />
    <glyph glyph-name="glyph45" horiz-adv-x="458" 
d="M365 952q5 -16 10.5 -31t17.5 -29t34 -27.5t59 -26.5q0 -3 -3.5 -9.5t-16.5 -6.5q-29 0 -58.5 6.5t-53 17t-38.5 24t-15 28.5q0 14 14.5 30t49.5 24zM329 509q-14 0 -27.5 -2t-25.5 -5q10 -32 32 -52t63 -20q18 0 27 9t9 21q0 17 -18.5 33t-59.5 16zM518 618q0 43 -12 71
t-31 43q-20 -29 -31 -66t-11 -69q0 -30 12 -50.5t39 -20.5q14 0 24 27.5t10 64.5zM2052 -532q-43 105 -114.5 175t-161.5 111.5t-194.5 59t-213.5 17.5q-131 0 -256.5 -22t-243.5 -48.5t-225 -48.5t-200 -22q-128 0 -221.5 38t-154.5 99.5t-90.5 139.5t-29.5 159
q0 65 18.5 128t55 115.5t90.5 91t124 55.5q-6 18 -8.5 37t-2.5 39q0 47 19 83.5t50 61.5t69 38t76 13q27 0 56 -8q15 11 32.5 18t37.5 7q35 0 57 -11.5t22 -22.5q0 -7 -12 -16t-31 -11q-13 43 -47 43q-11 0 -20.5 -4t-19.5 -10q35 -16 58 -47.5t23 -80.5q0 -26 -8 -51
t-21.5 -44t-32 -30.5t-39.5 -11.5q-41 0 -59.5 29t-18.5 71q0 33 11 69.5t32 65.5q-19 8 -38 8q-26 0 -53.5 -12.5t-49.5 -35.5t-36 -55t-14 -70q0 -32 4 -55q16 2 32.5 3.5t33.5 1.5q48 0 73 -23t25 -48q0 -20 -16 -35t-49 -15q-44 0 -75 23t-49 60q-60 -31 -90 -100.5
t-30 -155.5q0 -79 25.5 -161t76 -149.5t126 -110.5t176.5 -43q67 0 145 12t165 30t182.5 39t197.5 39t210 30t220 12q103 0 194 -13t158 -44t106 -82.5t39 -127.5q0 -42 -22.5 -91t-72.5 -106z" />
    <glyph glyph-name="glyph49" horiz-adv-x="793" 
d="M720 160q-3 0 -7 0.5t-8 0.5q-30 0 -74.5 -7t-98.5 -18q-2 -57 -3 -114t-1 -115q0 -4 -5.5 -7.5t-13.5 -6.5t-17 -4.5t-16 -1.5q-10 0 -20 18t-19 48.5t-16 71t-12 85.5q-42 -10 -83.5 -20t-79 -19t-70 -16.5t-57.5 -11.5q-12 0 -16 6q-3 3 -3 6t3 6q5 5 19 9
q11 2 38.5 8.5t66 15.5t84.5 20t95 22q-3 29 -4 59t-1 59q0 70 7 128t25.5 100.5t51.5 67.5t85 28q-14 -93 -23 -197t-14 -216q65 14 117.5 23t78.5 9q23 0 23 -10q0 -8 -10.5 -16.5t-21.5 -10.5zM216 782q64 0 140 -13.5t157.5 -29t166 -29t166.5 -13.5q81 0 155 17.5
t137 63.5q19 -16 19 -33q-36 -44 -98.5 -73.5t-137 -46.5t-153 -24t-147.5 -7q-65 0 -128.5 4t-123.5 9t-115 9t-104 4q-53 0 -93.5 -10.5t-68 -28t-41.5 -41t-14 -48.5q0 -48 49 -94.5t152 -75.5q4 -15 4 -31q0 -30 -14.5 -45t-36.5 -15q-42 0 -75.5 20.5t-57 55t-36 79.5
t-12.5 93q0 55 17.5 109t55 97t96 70t141.5 27z" />
    <glyph glyph-name="glyph51" horiz-adv-x="703" 
d="M573 -143q0 -72 -22.5 -122.5t-60 -82t-87 -45.5t-104.5 -14q-48 0 -97.5 9.5t-95.5 27t-86.5 40.5t-70.5 50.5t-47.5 57.5t-17.5 61q0 20 4.5 39.5t10.5 34.5q7 18 16 34q70 -42 143 -78t141 -62t128.5 -41t106.5 -15q50 0 78.5 19t28.5 63q0 42 -8 87t-20.5 91
t-28 91.5t-29.5 89.5q-47 -35 -103.5 -57.5t-122.5 -22.5q-60 0 -104 17t-72 46.5t-41.5 69t-13.5 84.5q0 46 14.5 96.5t41.5 99.5t65.5 93.5t86.5 78t104.5 53.5t119.5 20q49 0 86 -12.5t61.5 -31t37 -41t12.5 -41.5q0 -22 -15 -36.5t-45 -14.5q-16 0 -31 4q-3 45 -18.5 73
t-37.5 43t-46 20.5t-45 5.5q-56 0 -100.5 -30.5t-75 -79t-46.5 -108t-16 -117.5q0 -43 9 -81.5t28.5 -68t48.5 -47t70 -17.5t75 10t62 27q-14 47 -23 88.5t-9 77.5q0 44 11.5 76t29.5 52.5t40 30t43 9.5q42 0 62 -25t20 -65q0 -48 -25.5 -106.5t-73.5 -112.5q5 -53 14 -103
t18 -98.5t15.5 -96.5t6.5 -97zM515 345v-27t1 -26q19 24 33 50t23 51.5t13 49t4 42.5q0 22 -5.5 35t-15.5 13q-17 0 -27.5 -16.5t-16 -43t-7.5 -60t-2 -68.5z" />
    <glyph glyph-name="glyph52" horiz-adv-x="703" 
d="M610 -263q0 -104 -32.5 -185t-82 -137t-108.5 -85.5t-112 -29.5q-31 0 -58 10.5t-47.5 32t-32 54t-11.5 76.5q0 85 31.5 153.5t87 121t132.5 90.5t169 63q-20 72 -44.5 147t-46.5 144q-47 -35 -103.5 -57.5t-122.5 -22.5q-60 0 -104 17t-72 46.5t-41.5 69t-13.5 84.5
q0 46 14.5 96.5t41.5 99.5t65.5 93.5t86.5 78t104.5 53.5t119.5 20q49 0 86 -12.5t61.5 -31t37 -41t12.5 -41.5q0 -22 -15 -36.5t-45 -14.5q-16 0 -31 4q-3 45 -18.5 73t-37.5 43t-46 20.5t-45 5.5q-56 0 -100.5 -30.5t-75 -79t-46.5 -108t-16 -117.5q0 -43 9 -81.5
t28.5 -68t48.5 -47t70 -17.5q42 0 75.5 10t62.5 27q-15 50 -24 92.5t-9 73.5q0 44 11.5 76t29.5 52.5t40 30t43 9.5q42 0 62 -25t20 -65q0 -47 -25 -105t-72 -112q10 -82 30 -171t37 -172q85 20 177.5 29t189.5 9q122 0 244 -14t233.5 -39.5t208.5 -62.5t168 -82.5t112 -99
t41 -112.5q0 -31 -10 -65t-32 -70q-30 50 -102.5 103t-172.5 103t-220.5 95t-247.5 79t-253.5 53.5t-237.5 19.5q-23 0 -45 -1t-43 -3q5 -32 8.5 -61t3.5 -55zM579 -287q0 29 -5.5 63.5t-14.5 72.5q-62 -9 -113 -27.5t-87.5 -48.5t-56.5 -72t-20 -97q0 -36 9.5 -63t25.5 -45
t37 -27t45 -9q31 0 63 16t58 47.5t42.5 79t16.5 110.5zM515 345v-26t2 -27q19 24 32.5 50t22.5 51.5t13 49t4 42.5q0 22 -5.5 35t-15.5 13q-17 0 -27.5 -16.5t-16 -43t-7.5 -60t-2 -68.5z" />
    <glyph glyph-name="glyph54" horiz-adv-x="698" 
d="M242 -366q-3 -13 -26 -21q-2 0 -11.5 22t-23.5 60q-121 2 -179.5 24t-58.5 52q0 28 44 57.5t132 55.5q-21 71 -42 152t-37.5 164t-26.5 165.5t-10 156.5q0 65 9.5 120.5t30.5 97t56 66t86 27.5q-6 -38 -8.5 -92.5t-2.5 -120.5q0 -78 3 -168t8.5 -183.5t12 -186
t14.5 -175.5q94 19 223 30q-12 72 -24 148t-21 147t-14.5 133.5t-5.5 108.5q0 26 7.5 51t22 44.5t35.5 31t48 11.5q24 0 54 -12q-5 -51 -7.5 -113t-2.5 -132q0 -98 3 -203.5t7 -208.5q28 1 57 1.5t60 0.5q125 0 251 -11t241 -32t214.5 -52.5t172.5 -72.5t115 -91.5
t42 -110.5q0 -31 -10 -65t-32 -70q-3 46 -50 90.5t-127.5 85t-187.5 76t-229 64t-253.5 48t-259.5 28.5q2 -62 3.5 -117.5t1.5 -103.5q0 -13 -7.5 -18.5t-18.5 -5.5q-10 0 -17 3q-8 33 -21.5 98t-28.5 149q-26 2 -51 2h-50q-38 0 -71 -1t-62 -3q6 -61 12 -112t11 -89z
M136 -173q-74 -10 -109 -25t-35 -31q0 -17 45.5 -32t133.5 -17z" />
    <glyph glyph-name="glyph61" horiz-adv-x="855" 
d="M397 802q26 -29 74 -41t106 -12q52 0 108 7.5t106.5 18t90.5 21.5t61 19q14 -17 14 -33q0 -12 -21.5 -29t-57.5 -35.5t-82.5 -37.5t-97.5 -34q1 -32 4.5 -74t7.5 -90.5t8 -99.5t7.5 -101.5t6 -96.5t2.5 -84q0 -72 -24.5 -126t-65 -89t-92.5 -52.5t-107 -17.5
q-48 0 -97.5 9.5t-95.5 27t-86.5 40.5t-70.5 50.5t-47.5 57.5t-17.5 61q0 20 4.5 39.5t10.5 34.5q7 18 16 34q70 -42 143 -78t141 -62t128.5 -41t106.5 -15q50 0 78.5 19t28.5 63q0 35 -19.5 87t-42.5 111.5t-42.5 122t-19.5 119.5q0 38 11 70.5t38 58.5q-31 -6 -60.5 -9.5
t-56.5 -3.5q-62 0 -102 22t-40 75q0 18 3.5 34.5t9.5 29.5t14 21.5t17 8.5z" />
    <glyph glyph-name="glyph62" horiz-adv-x="552" 
d="M60 802q26 -29 74 -41t106 -12q52 0 108 7.5t106.5 18t90.5 21.5t61 19q14 -17 14 -33q0 -12 -21 -28.5t-56.5 -35.5t-82 -37.5t-97.5 -33.5q17 -152 25.5 -304t8.5 -308v-57.5t-1 -57.5q77 15 158.5 22t166.5 7q122 0 244 -14t233.5 -39.5t208.5 -62.5t168 -82.5
t112 -99t41 -112.5q0 -31 -10 -65t-32 -70q-30 50 -102.5 103t-172.5 103t-220.5 95t-247.5 79t-253.5 53.5t-237.5 19.5h-28.5t-28.5 -1q-3 -72 -10 -141t-22.5 -131t-41 -114t-64 -90t-92 -59t-124.5 -21q-31 0 -58 10.5t-47.5 32t-32 54t-11.5 76.5q0 88 33 158t92 123.5
t140 91t177 61.5q-12 104 -32.5 191t-40 158.5t-34 127.5t-14.5 97t13 77.5t45 65.5q-30 -6 -58.5 -9.5t-54.5 -3.5q-62 0 -102 22t-40 75q0 18 3.5 34.5t9.5 29.5t14 21.5t17 8.5zM345 -287q0 72 -6 138q-65 -8 -118.5 -26t-92 -48t-59.5 -73t-21 -100q0 -36 9.5 -63
t25.5 -45t37 -27t45 -9q31 0 63 16t58 47.5t42.5 79t16.5 110.5z" />
    <glyph glyph-name="glyph64" horiz-adv-x="556" 
d="M-73 751q55 37 107 37q49 0 81.5 -35.5t32.5 -105.5q0 -66 -6.5 -142t-10.5 -155q77 48 139 102.5t110.5 111.5t85 114t63.5 110q38 -26 55 -53t17 -55q0 -31 -18 -63t-49 -62.5t-71.5 -60t-84.5 -56.5t-89.5 -51t-86.5 -44q30 -62 87.5 -135.5t135 -148.5t172.5 -145
t200 -124t217 -86.5t224 -32.5q115 0 221 40.5t194 136.5q18 -37 26 -72t8 -67q0 -50 -18.5 -92t-52 -72t-81 -47t-104.5 -17q-162 0 -312 40t-282.5 107t-244.5 154.5t-199 181t-146.5 187t-85.5 173.5l-32 -15q-1 -15 -1 -30v-29q0 -90 15.5 -168.5t60.5 -129.5
q-55 -37 -107 -37q-49 0 -81.5 35.5t-32.5 105.5q0 49 4.5 106.5t9.5 117.5t9.5 120t4.5 115q0 44 -4 83t-13.5 69.5t-25.5 52.5t-41 31z" />
    <glyph glyph-name="glyph65" horiz-adv-x="556" 
d="M-73 751q55 37 107 37q49 0 81.5 -35.5t32.5 -105.5q0 -66 -6.5 -142t-10.5 -155q77 48 139 102.5t110.5 111.5t85 114t63.5 110q38 -26 55 -53t17 -55q0 -31 -18 -63t-49 -62.5t-71.5 -60t-84.5 -56.5t-89.5 -51t-86.5 -44q25 -55 62 -122t82.5 -136t98 -134
t108.5 -115.5t113.5 -81t113.5 -30.5q21 0 38 4q1 -6 1 -12v-12q0 -48 -15.5 -79.5t-38 -50t-47 -26.5t-41.5 -8q-60 0 -110 32t-94 88t-82.5 131.5t-75 163.5t-71.5 183.5t-72 190.5l-43 -20q-1 -15 -1 -30v-29q0 -90 15.5 -168.5t60.5 -129.5q-55 -37 -107 -37
q-49 0 -81.5 35.5t-32.5 105.5q0 49 4.5 106.5t9.5 117.5t9.5 120t4.5 115q0 44 -4 83t-13.5 69.5t-25.5 52.5t-41 31z" />
    <glyph glyph-name="glyph67" horiz-adv-x="596" 
d="M136 383q0 -41 2 -73.5t5 -62t7 -57t8 -57.5q15 2 30.5 3t31.5 1q64 0 125.5 -14.5t110 -41.5t78.5 -66.5t30 -89.5q0 -34 -15.5 -70t-49.5 -74q-28 28 -65.5 58.5t-79.5 59t-86 52t-84 38.5q-4 -42 -21.5 -70.5t-42 -46.5t-54 -25.5t-57.5 -7.5q-60 0 -86 19t-26 48
q0 75 42.5 124.5t107.5 75.5q-1 22 -1.5 47t-0.5 52q0 63 4 129t16 128.5t33.5 118t56 97t84 66t116.5 24.5q65 0 92.5 -29t27.5 -71q0 -37 -18.5 -78t-49.5 -75.5t-72 -57.5t-86 -23q-10 0 -10 7q0 5 5 15q26 11 46.5 32.5t34.5 47.5t21.5 54t7.5 53q0 34 -14 57t-45 23
q-47 0 -78 -28t-49 -74.5t-25 -108.5t-7 -129zM-16 -120q15 0 34.5 32t29.5 87q-43 -14 -63.5 -42.5t-20.5 -51.5q0 -25 20 -25z" />
    <glyph glyph-name="glyph68" horiz-adv-x="372" 
d="M163 336q0 -59 7 -124t15.5 -131.5t15.5 -132.5t8 -127q103 38 232.5 63t284.5 25q125 0 251 -11t241 -32t214.5 -52.5t172.5 -72.5t115 -91.5t42 -110.5q0 -31 -10 -65t-32 -70q-2 39 -36.5 77t-94 73t-140.5 67.5t-176.5 60t-201.5 50t-215.5 38.5t-219.5 24.5
t-212 8.5q-60 0 -114 -8.5t-103 -22.5q-8 -65 -37 -115.5t-68.5 -85t-83 -52t-80.5 -17.5q-39 0 -57.5 13t-18.5 35q0 19 14 44t41.5 53t67.5 57t92 57q-9 60 -21 128.5t-12 139.5q0 86 7 174t22 170t39 154t58.5 125.5t80 84.5t104.5 31q65 0 92.5 -29t27.5 -71
q0 -37 -18.5 -78t-49.5 -75.5t-72 -57.5t-86 -23h-4q-6 0 -6 7q0 5 5 15q26 11 46.5 32.5t34.5 47.5t21.5 54t7.5 53q0 34 -14 57t-45 23q-39 0 -64.5 -30.5t-40.5 -83t-21 -123t-6 -150.5zM85 -328q0 12 -1 25t-3 27q-40 -20 -71.5 -41t-54 -42t-34.5 -39.5t-12 -32.5
q0 -28 45 -28q21 0 44 8t42.5 24.5t32 41t12.5 57.5z" />
    <glyph glyph-name="glyph71" horiz-adv-x="1067" 
d="M159 -72q0 -5 -8 -10.5t-18 -9.5q-3 0 -17 28t-33 75t-40 109t-39 130.5t-30 139.5t-12 136q0 54 10 101t33 82.5t60.5 57t93.5 24.5q-14 -86 -20 -196t-6 -228q0 -83 3 -164t9 -156q14 86 30 175.5t34 174t39 159t47 130t57 88t69 32.5q29 0 47.5 -27t29.5 -74
q11 -46 16.5 -106.5t8 -128.5t2.5 -140t1 -139q22 106 47.5 204t57 172.5t70.5 119t88 44.5q36 0 56.5 -30.5t30.5 -83t12.5 -123.5t2.5 -151q0 -40 1.5 -91.5t6.5 -109t14.5 -118t26 -118t40.5 -108t58 -88.5t78.5 -60t101.5 -22q-19 -74 -62 -108t-97 -34q-71 0 -122.5 32
t-87.5 86.5t-58.5 128t-34.5 156.5t-16.5 171t-4.5 172q0 97 3 181.5t3 145.5v36t-2 29q-15 0 -33.5 -28.5t-38 -76t-39 -108t-38 -124.5t-34 -126.5t-26.5 -113.5q2 -34 5 -63t8 -52q-15 -3 -29 -3q-35 0 -59 18t-39.5 48.5t-24.5 69t-13 79t-4.5 80.5t-0.5 72
q0 78 5 156.5t5 163.5q0 38 -2.5 60.5t-9.5 22.5q-14 0 -30.5 -29t-34 -77t-35 -111t-33.5 -130t-30.5 -134t-25 -124.5t-17 -99.5t-7.5 -60q0 -2 0.5 -2.5t0.5 -2.5v-1z" />
    <glyph glyph-name="glyph73" horiz-adv-x="696" 
d="M159 -72q0 -5 -8 -10.5t-18 -9.5q-3 0 -17 28t-33 75t-40 109t-39 130.5t-30 139.5t-12 136q0 54 10 101t33 82.5t60.5 57t93.5 24.5q-14 -86 -20 -196t-6 -228q0 -83 3 -164t9 -156q14 86 30 175.5t34 174t39 159t47 130t57 88t69 32.5q29 0 45.5 -16.5t25 -46t10.5 -71
t2 -91.5q0 -85 2 -184t9.5 -198.5t23 -191.5t43 -163t69.5 -113.5t102 -42.5t136 50q2 -14 3.5 -27t1.5 -25q0 -52 -19.5 -89t-51 -60.5t-70 -34.5t-76.5 -11q-65 0 -114 30.5t-84 83t-57.5 123.5t-36 152.5t-18.5 169t-5 173.5q0 85 3.5 164t8 144.5t9 113.5t5.5 71
q-19 0 -39 -29.5t-39.5 -79t-38 -113.5t-35 -133t-30.5 -137.5t-24.5 -127t-16.5 -101.5t-7 -61q0 -2 0.5 -2.5t0.5 -2.5v-1z" />
    <glyph glyph-name="glyph75" horiz-adv-x="696" 
d="M159 -72q0 -5 -8 -10.5t-18 -9.5q-3 0 -17 28t-33 75t-40 109t-39 130.5t-30 139.5t-12 136q0 54 10 101t33 82.5t60.5 57t93.5 24.5q-14 -86 -20 -196t-6 -228q0 -83 3 -164t9 -156q14 86 30 175.5t34 174t39 159t47 130t57 88t69 32.5q29 0 45.5 -16.5t25 -46t10.5 -71
t2 -91.5q0 -85 2 -184t9.5 -198.5t23 -191.5t43 -163t69.5 -113.5t102 -42.5t136 50q2 -14 3.5 -27t1.5 -25q0 -52 -19.5 -89t-51 -60.5t-70 -34.5t-76.5 -11q-65 0 -114 30.5t-84 83t-57.5 123.5t-36 152.5t-18.5 169t-5 173.5q0 85 3.5 164t8 144.5t9 113.5t5.5 71
q-19 0 -39 -29.5t-39.5 -79t-38 -113.5t-35 -133t-30.5 -137.5t-24.5 -127t-16.5 -101.5t-7 -61q0 -2 0.5 -2.5t0.5 -2.5v-1zM388 959q13 -11 18.5 -24.5t5.5 -27.5q0 -23 -13.5 -40t-39.5 -17q-9 0 -24.5 5t-33.5 11.5t-37 11.5t-35 5q-17 0 -29 -7t-17 -24q-14 32 -14 52
q0 23 16 30t41 7q20 0 42.5 -2t44.5 -2q23 0 42.5 4t32.5 18z" />
    <glyph glyph-name="glyph85" horiz-adv-x="644" 
d="M767 357q-87 0 -174.5 6.5t-174.5 22.5q-6 -99 -7 -198.5t-1 -201.5q0 -18 -4 -35.5t-14 -31.5t-25.5 -23t-39.5 -9q-89 0 -154.5 30t-108.5 81t-64.5 118t-21.5 140q0 110 42 195.5t115.5 150t172 109.5t211.5 72.5t234 40t240 12.5q176 0 302.5 -15.5t208 -41.5
t120 -60t38.5 -72q0 -50 -63.5 -101.5t-180.5 -93.5t-282 -68.5t-369 -26.5zM357 -45q0 12 -5.5 40t-13.5 65.5t-18 81.5t-18 88.5t-13.5 86.5t-5.5 75v25q-14 4 -27.5 8t-27.5 9q0 5 7 7.5t12 2.5q9 -2 18.5 -3.5t19.5 -3.5q7 68 42.5 117t114.5 69q-8 -51 -13.5 -101.5
t-8.5 -102.5q55 -5 111.5 -7.5t114.5 -2.5q156 0 289 22t230.5 56.5t152.5 76t55 81.5q0 27 -28.5 51.5t-90 43t-158.5 29t-233 10.5q-85 0 -172 -10.5t-167 -34.5t-150 -63t-121.5 -96.5t-81.5 -134.5t-30 -176q0 -69 11 -133t33.5 -112.5t56.5 -77.5t79 -29q16 0 26 10
t10 33z" />
    <glyph glyph-name="glyph88" horiz-adv-x="605" 
d="M1451 -519q-112 0 -213.5 22.5t-192.5 60t-173.5 88t-156.5 106.5t-140.5 114t-127.5 112t-116 100t-106 78q8 -61 23.5 -114.5t39.5 -95.5q-55 -37 -107 -37q-49 0 -81.5 35.5t-32.5 105.5q0 65 6 127h-13q-27 0 -39.5 7t-12.5 17q0 12 18.5 23t52.5 11q18 133 59.5 240
t96.5 183t119 117t127 41q46 0 80 -13t56.5 -36t33.5 -54.5t11 -68.5q0 -60 -29 -129t-85 -132.5t-138.5 -114t-188.5 -74.5v-1q67 -33 143.5 -84.5t160 -110t173 -118t182.5 -107.5t188 -78t190 -30q115 0 221 40.5t194 136.5q18 -37 26 -72t8 -67q0 -50 -18.5 -92t-52 -72
t-81 -47t-104.5 -17zM217 297q0 -19 0.5 -37.5t1.5 -37.5q70 25 122.5 69.5t88 97t53 108.5t17.5 104q0 59 -27 98.5t-80 39.5q-42 0 -75 -38t-55.5 -100t-34 -141.5t-11.5 -162.5zM76 217q-3 0 -10.5 -0.5t-15 -2t-13.5 -4t-6 -6.5q0 -3 7 -5.5t24 -2.5h12z" />
    <glyph glyph-name="glyph89" horiz-adv-x="605" 
d="M1131 -429q-95 0 -183 32.5t-169.5 84t-156.5 116t-144 129.5t-132 123.5t-120 97.5q8 -59 23.5 -110.5t38.5 -91.5q-55 -37 -107 -37q-49 0 -81.5 35.5t-32.5 105.5q0 65 6 127h-13q-27 0 -39.5 7t-12.5 17q0 12 18.5 23t52.5 11q18 133 59.5 240t96.5 183t119 117
t127 41q46 0 80 -13t56.5 -36t33.5 -54.5t11 -68.5q0 -60 -29 -129t-85 -132.5t-138.5 -114t-188.5 -74.5q57 -27 121 -69.5t131.5 -90.5t137.5 -96.5t140 -87t138.5 -63t131.5 -24.5q71 0 134 33.5t114 112.5q17 -35 27 -76t10 -82q0 -37 -9.5 -70.5t-30 -59t-54 -41
t-81.5 -15.5zM217 297q0 -19 0.5 -37.5t1.5 -37.5q70 25 122.5 69.5t88 97t53 108.5t17.5 104q0 59 -27 98.5t-80 39.5q-42 0 -75 -38t-55.5 -100t-34 -141.5t-11.5 -162.5zM70 217q-15 0 -27 -3.5t-12 -9.5q0 -3 7 -5.5t24 -2.5h12q0 5 0.5 10t1.5 10q-2 0 -3 0.5t-3 0.5z
" />
    <glyph glyph-name="glyph90" horiz-adv-x="605" 
d="M747 -503q-52 0 -93.5 21.5t-75 57.5t-61.5 84t-53.5 102t-50.5 110t-53 108t-60.5 97t-73.5 77q8 -59 23.5 -110.5t38.5 -91.5q-55 -37 -107 -37q-49 0 -81.5 35.5t-32.5 105.5q0 65 6 127h-13q-27 0 -39.5 7t-12.5 17q0 12 18.5 23t52.5 11q18 133 59.5 240t96.5 183
t119 117t127 41q46 0 80 -13t56.5 -36t33.5 -54.5t11 -68.5q0 -60 -29 -129t-85 -132.5t-138.5 -114t-188.5 -74.5v-2q61 -31 115.5 -81.5t105.5 -108t100.5 -115.5t99.5 -105t102.5 -76.5t110.5 -29.5q16 0 33 3q-3 -54 -13.5 -90t-28.5 -57.5t-43 -31t-56 -9.5zM217 297
q0 -19 0.5 -37.5t1.5 -37.5q70 25 122.5 69.5t88 97t53 108.5t17.5 104q0 59 -27 98.5t-80 39.5q-42 0 -75 -38t-55.5 -100t-34 -141.5t-11.5 -162.5zM70 217q-15 0 -27 -3.5t-12 -9.5q0 -3 7 -5.5t24 -2.5h12q0 5 0.5 10t1.5 10q-2 0 -3 0.5t-3 0.5z" />
    <glyph glyph-name="glyph92" horiz-adv-x="732" 
d="M305 81q15 0 39 3t51 9t54 16t48.5 23.5t35 31.5t13.5 41q0 32 -35.5 60.5t-89 56.5t-115.5 57t-115.5 61.5t-89 71t-35.5 84.5q0 36 17 66t45 54t64.5 41.5t74.5 29t75.5 17.5t67.5 6q76 0 132 -27q29 18 60 18q35 0 57 -11.5t22 -22.5q0 -15 -35 -18q-7 23 -22.5 28.5
t-32.5 5.5q-8 0 -16 -2.5t-16 -6.5q33 -21 53 -53.5t20 -79.5q0 -32 -10 -57t-26 -43t-36 -27.5t-39 -9.5q-28 0 -48.5 22.5t-20.5 72.5q0 34 11.5 71t33.5 67q-32 18 -74 18q-41 0 -84.5 -15.5t-79 -42.5t-58.5 -63t-23 -76q0 -29 18.5 -57t63.5 -53q36 -21 79.5 -40
t86.5 -39.5t83.5 -42.5t71.5 -48.5t49.5 -58t18.5 -70.5q0 -68 -31.5 -118t-82 -83.5t-115 -50t-130.5 -16.5q-62 0 -120 14t-103 42.5t-72.5 70t-27.5 97.5q0 47 31 94q28 -29 64 -51t76 -37t82.5 -22.5t84.5 -7.5zM556 614q0 40 -12 67.5t-32 44.5q-19 -29 -30 -65
t-11 -68q0 -30 12.5 -47t28.5 -17q17 0 30.5 20t13.5 65z" />
    <glyph glyph-name="glyph93" horiz-adv-x="807" 
d="M71 -486q-59 0 -87 17t-28 45q0 33 37.5 76.5t109 87t175 82t236.5 61.5q14 47 14 93q0 55 -20.5 98t-54.5 79t-77 66t-88.5 58.5t-88.5 57t-77 61t-54.5 71t-20.5 86.5q0 60 33.5 107.5t86 80.5t117 51t126.5 18q76 0 132 -27q29 18 60 18q35 0 57 -11.5t22 -22.5
q0 -15 -35 -18q-7 23 -22.5 28.5t-32.5 5.5q-8 0 -16 -2.5t-16 -6.5q33 -21 53 -53.5t20 -79.5q0 -32 -10 -57t-26 -43t-36 -27.5t-39 -9.5q-28 0 -48.5 22.5t-20.5 72.5q0 34 12 71.5t34 68.5q-24 17 -55 25t-63 8q-39 0 -78 -10t-70 -28t-50.5 -42t-19.5 -51
q0 -35 21.5 -67t57.5 -63t81.5 -61.5t92.5 -63t92.5 -67.5t81.5 -75t57.5 -85.5t21.5 -99.5q0 -42 -8 -81.5t-22 -77.5q90 9 191 9q125 0 251 -11t241 -32t214.5 -52.5t172.5 -72.5t115 -91.5t42 -110.5q0 -31 -10 -65t-32 -70q-3 50 -58 98t-147.5 91t-214 80t-258 64.5
t-279 44.5t-277.5 20q-41 -64 -98.5 -117t-126 -91t-143.5 -59t-150 -21zM41 -443q68 0 133.5 18.5t123 51t104 77.5t77.5 98q-118 -5 -207.5 -30.5t-150 -59t-91 -68.5t-30.5 -58q0 -29 41 -29zM556 614q0 38 -12 65.5t-32 46.5q-19 -29 -30 -65t-11 -68q0 -30 12.5 -47
t28.5 -17q17 0 30.5 20t13.5 65z" />
    <glyph glyph-name="glyph95" horiz-adv-x="732" 
d="M319 857q-11 31 -30.5 62t-57.5 54q0 3 3.5 9.5t16.5 6.5q38 0 64.5 -17t41.5 -40q15 23 42 40t65 17q13 0 16.5 -6.5t3.5 -9.5q-36 -22 -55.5 -52.5t-32.5 -63.5q-3 -8 -14.5 -12t-25.5 -4q-13 0 -23.5 4t-13.5 12zM305 81q15 0 39 3t51 9t54 16t48.5 23.5t35 31.5
t13.5 41q0 32 -35.5 60.5t-89 56.5t-115.5 57t-115.5 61.5t-89 71t-35.5 84.5q0 36 17 66t45 54t64.5 41.5t74.5 29t75.5 17.5t67.5 6q76 0 132 -27q29 18 60 18q35 0 57 -11.5t22 -22.5q0 -15 -35 -18q-7 23 -22.5 28.5t-32.5 5.5q-8 0 -16 -2.5t-16 -6.5q33 -21 53 -53.5
t20 -79.5q0 -32 -10 -57t-26 -43t-36 -27.5t-39 -9.5q-28 0 -48.5 22.5t-20.5 72.5q0 34 11.5 71t33.5 67q-32 18 -74 18q-41 0 -84.5 -15.5t-79 -42.5t-58.5 -63t-23 -76q0 -29 18.5 -57t63.5 -53q36 -21 79.5 -40t86.5 -39.5t83.5 -42.5t71.5 -48.5t49.5 -58t18.5 -70.5
q0 -68 -31.5 -118t-82 -83.5t-115 -50t-130.5 -16.5q-62 0 -120 14t-103 42.5t-72.5 70t-27.5 97.5q0 47 31 94q28 -29 64 -51t76 -37t82.5 -22.5t84.5 -7.5zM556 614q0 40 -12 67.5t-32 44.5q-19 -29 -30 -65t-11 -68q0 -30 12.5 -47t28.5 -17q17 0 30.5 20t13.5 65z" />
    <glyph glyph-name="glyph97" horiz-adv-x="424" 
d="M254 -20q0 -4 -5.5 -7.5t-13.5 -6.5t-17 -4.5t-16 -1.5q-14 0 -27.5 33t-24 85.5t-17 118t-6.5 130.5q0 55 3.5 106t14.5 96q-66 12 -121 30t-97 41q-32 -24 -70 -24q-35 0 -57 11.5t-22 22.5q0 15 35 18q7 -23 22.5 -28.5t32.5 -5.5q21 0 42 16q-39 25 -61 56.5
t-22 69.5q0 26 8 51t21.5 44t32 30.5t39.5 11.5q42 0 61 -28.5t19 -70.5q0 -26 -6.5 -53.5t-19.5 -53.5q36 -17 86 -30t111 -21q19 32 47.5 52t69.5 22q-3 -20 -6 -40.5t-5 -42.5q32 -2 65 -3t68 -1q104 0 214 8.5t215 23.5t198.5 37t165 49.5t115 59.5t48.5 67
q22 -36 32 -70t10 -65q0 -32 -35.5 -60t-97.5 -52t-146 -43.5t-181.5 -33t-203.5 -20.5t-211 -7q-69 0 -136 3t-130 10q-11 -126 -16 -264t-5 -266zM-97 763q0 -26 15 -47t43 -38q12 26 18.5 53.5t6.5 52.5q0 32 -11.5 49t-26.5 17q-17 0 -31 -21t-14 -66z" />
    <glyph glyph-name="glyph100" horiz-adv-x="696" 
d="M230 -11q48 0 89 34t76 90q-11 54 -16 106.5t-5 100.5q0 76 10 145.5t27.5 122t41 83.5t51.5 31q23 0 34.5 -32.5t11.5 -86.5q0 -36 -5 -79.5t-14.5 -90.5t-24 -95.5t-32.5 -95.5q17 -86 50.5 -150.5t81.5 -114.5t109.5 -88t134.5 -70q-6 -22 -20.5 -36.5t-32.5 -23
t-37 -12t-34 -3.5q-68 0 -120.5 29.5t-92 79t-67 113.5t-43.5 133q-41 -63 -91 -102t-110 -39q-37 0 -68.5 19t-56.5 52.5t-44 78.5t-31.5 97t-19 109t-6.5 113q0 74 11 143t33 122t56 85t79 32q46 0 94 -18q-10 -9 -21 -39t-23 -74t-23 -98.5t-19.5 -113.5t-13.5 -119.5
t-5 -114.5q0 -47 4.5 -88t15 -71t26.5 -47t40 -17zM523 562q0 55 -12 88q-28 -57 -40.5 -118t-12.5 -124q0 -78 9 -142q26 78 41 155.5t15 140.5z" />
    <glyph glyph-name="glyph102" horiz-adv-x="696" 
d="M412 861q35 -8 49.5 -19.5t14.5 -25.5q0 -15 -15 -30t-38.5 -27t-53 -20t-58.5 -8q-13 0 -16.5 6.5t-3.5 9.5q37 13 59 26.5t34 27.5t17.5 29t10.5 31zM523 562q0 55 -12 88q-28 -57 -40.5 -118t-12.5 -124q0 -78 9 -142q26 78 41 155.5t15 140.5zM230 -11q48 0 89 34
t76 90q-11 54 -16 106.5t-5 100.5q0 76 10 145.5t27.5 122t41 83.5t51.5 31q23 0 34.5 -32.5t11.5 -86.5q0 -36 -5 -79.5t-14.5 -90.5t-24 -95.5t-32.5 -95.5q17 -86 50.5 -150.5t81.5 -114.5t109.5 -88t134.5 -70q-6 -22 -20.5 -36.5t-32.5 -23t-37 -12t-34 -3.5
q-68 0 -120.5 29.5t-92 79t-67 113.5t-43.5 133q-41 -63 -91 -102t-110 -39q-37 0 -68.5 19t-56.5 52.5t-44 78.5t-31.5 97t-19 109t-6.5 113q0 74 11 143t33 122t56 85t79 32q46 0 94 -18q-10 -9 -21 -39t-23 -74t-23 -98.5t-19.5 -113.5t-13.5 -119.5t-5 -114.5
q0 -47 4.5 -88t15 -71t26.5 -47t40 -17z" />
    <glyph glyph-name="glyph104" horiz-adv-x="696" 
d="M362 867q3 8 13.5 12t23.5 4q14 0 25.5 -4t14.5 -12q13 -33 32.5 -63.5t55.5 -52.5q0 -3 -3.5 -9.5t-16.5 -6.5q-38 0 -65 17t-42 40q-15 -23 -41.5 -40t-64.5 -17q-13 0 -16.5 6.5t-3.5 9.5q38 23 57.5 54t30.5 62zM523 562q0 55 -12 88q-28 -57 -40.5 -118t-12.5 -124
q0 -78 9 -142q26 78 41 155.5t15 140.5zM230 -11q48 0 89 34t76 90q-11 54 -16 106.5t-5 100.5q0 76 10 145.5t27.5 122t41 83.5t51.5 31q23 0 34.5 -32.5t11.5 -86.5q0 -36 -5 -79.5t-14.5 -90.5t-24 -95.5t-32.5 -95.5q17 -86 50.5 -150.5t81.5 -114.5t109.5 -88
t134.5 -70q-6 -22 -20.5 -36.5t-32.5 -23t-37 -12t-34 -3.5q-68 0 -120.5 29.5t-92 79t-67 113.5t-43.5 133q-41 -63 -91 -102t-110 -39q-37 0 -68.5 19t-56.5 52.5t-44 78.5t-31.5 97t-19 109t-6.5 113q0 74 11 143t33 122t56 85t79 32q46 0 94 -18q-10 -9 -21 -39t-23 -74
t-23 -98.5t-19.5 -113.5t-13.5 -119.5t-5 -114.5q0 -47 4.5 -88t15 -71t26.5 -47t40 -17z" />
    </font>
</defs>
</svg>
